The Mission – The First Chapter




Artist: The Mission
Year: 1987
Genre: Rock
Notes: Discogs
Add. Notes:
Cover incl.: Yes
Encoder: FLAC
Bitrate: ~900 kBit/s (44.1 kHz/16 Bit/s)
Log & Cue incl.: Yes
Size: 321,32 MB
Password: “slam” (without ” “)


All Downloads/Hosters are compatible

Download 1
Turbobit.net
KatFile.com
Rapidgator.net
Usersdrive.com
Download 2
Turbobit.net
KatFile.com
Rapidgator.net
Usersdrive.com

Tracklist:

1 - Like A Hurricane - 4:55
2 - Over The Hills And Far Away - 3:56
3 - Naked And Savage - 4:45
4 - Serpents Kiss - 4:15
5 - Dancing Barefoot - 3:05
6 - The Crystal Ocean (Extended) - 7:35
7 - Garden Of Delight (Extended) - 5:00
8 - Wake (RSV) - 5:00
9 - Like A Hurricane (Extended) - 7:05

EAC-Log, CUE-Sheed & NFO:

Click to open spoiler
Exact Audio Copy V1.1 from 23. June 2015

EAC extraction logfile from 17. February 2017, 18:16

The Mission / The First Chapter (832 527-2)

Used drive : HL-DT-STDVDRAM GE20NU11 Adapter: 1 ID: 0

Read mode : Secure
Utilize accurate stream : Yes
Defeat audio cache : Yes
Make use of C2 pointers : No

Read offset correction : 667
Overread into Lead-In and Lead-Out : No
Fill up missing offset samples with silence : Yes
Delete leading and trailing silent blocks : No
Null samples used in CRC calculations : Yes
Used interface : Native Win32 interface for Win NT & 2000
Gap handling : Appended to previous track

Used output format : User Defined Encoder
Selected bitrate : 896 kBit/s
Quality : High
Add ID3 tag : No
Command line compressor : C:\Program Files\EAC 3\Exact Audio Copy\Flac\flac.exe
Additional command line options : -V -8 -T “Genre=%genre%” -T “Artist=%artist%” -T “Title=%title%” -T “Album=%albumtitle%” -T “Date=%year%” -T “Tracknumber=%tracknr%” -T “Comment=%comment%” %source%

TOC of the extracted CD

Track | Start | Length | Start sector | End sector
———————————————————
1 | 0:00.33 | 5:00.27 | 33 | 22559
2 | 5:00.60 | 3:59.00 | 22560 | 40484
3 | 8:59.60 | 4:45.68 | 40485 | 61927
4 | 13:45.53 | 4:13.67 | 61928 | 80969
5 | 17:59.45 | 3:08.65 | 80970 | 95134
6 | 21:08.35 | 7:37.00 | 95135 | 129409
7 | 28:45.35 | 5:03.45 | 129410 | 152179
8 | 33:49.05 | 5:04.23 | 152180 | 175002
9 | 38:53.28 | 7:07.45 | 175003 | 207072

Track 1

Filename Z:\OdW\MISSION (UK) [non-remasters]\1987 – The First Chapter (832 527-2)\01. The Mission – Like A Hurricane.wav

Pre-gap length 0:00:02.33

Peak level 100.0 %
Extraction speed 4.4 X
Track quality 100.0 %
Test CRC A5B28D1B
Copy CRC A5B28D1B
Accurately ripped (confidence 82) [67A57DC8] (AR v2)
Copy OK

Track 2

Filename Z:\OdW\MISSION (UK) [non-remasters]\1987 – The First Chapter (832 527-2)\02. The Mission – Over The Hills And Far Away.wav

Pre-gap length 0:00:00.02

Peak level 100.0 %
Extraction speed 4.7 X
Track quality 100.0 %
Test CRC 7CDD3611
Copy CRC 7CDD3611
Accurately ripped (confidence 84) [BD72980F] (AR v2)
Copy OK

Track 3

Filename Z:\OdW\MISSION (UK) [non-remasters]\1987 – The First Chapter (832 527-2)\03. The Mission – Naked And Savage.wav

Pre-gap length 0:00:00.02

Peak level 100.0 %
Extraction speed 5.4 X
Track quality 100.0 %
Test CRC 883CD5EF
Copy CRC 883CD5EF
Accurately ripped (confidence 84) [CE75AB03] (AR v2)
Copy OK

Track 4

Filename Z:\OdW\MISSION (UK) [non-remasters]\1987 – The First Chapter (832 527-2)\04. The Mission – Serpents Kiss.wav

Pre-gap length 0:00:00.03

Peak level 100.0 %
Extraction speed 5.5 X
Track quality 100.0 %
Test CRC 1AA502F7
Copy CRC 1AA502F7
Accurately ripped (confidence 84) [94A0C6D5] (AR v2)
Copy OK

Track 5

Filename Z:\OdW\MISSION (UK) [non-remasters]\1987 – The First Chapter (832 527-2)\05. The Mission – Dancing Barefoot.wav

Pre-gap length 0:00:00.02

Peak level 100.0 %
Extraction speed 4.5 X
Track quality 99.9 %
Test CRC AD8701F8
Copy CRC AD8701F8
Accurately ripped (confidence 83) [F472CF0D] (AR v2)
Copy OK

Track 6

Filename Z:\OdW\MISSION (UK) [non-remasters]\1987 – The First Chapter (832 527-2)\06. The Mission – The Crystal Ocean (Extended).wav

Pre-gap length 0:00:00.02

Peak level 100.0 %
Extraction speed 6.7 X
Track quality 100.0 %
Test CRC 8D0240B3
Copy CRC 8D0240B3
Accurately ripped (confidence 83) [D8D9B0C1] (AR v2)
Copy OK

Track 7

Filename Z:\OdW\MISSION (UK) [non-remasters]\1987 – The First Chapter (832 527-2)\07. The Mission – Garden Of Delight (Extended).wav

Pre-gap length 0:00:00.02

Peak level 100.0 %
Extraction speed 6.8 X
Track quality 100.0 %
Test CRC 2A795EA9
Copy CRC 2A795EA9
Accurately ripped (confidence 83) [3B296D31] (AR v2)
Copy OK

Track 8

Filename Z:\OdW\MISSION (UK) [non-remasters]\1987 – The First Chapter (832 527-2)\08. The Mission – Wake (RSV).wav

Pre-gap length 0:00:00.02

Peak level 90.0 %
Extraction speed 7.1 X
Track quality 100.0 %
Test CRC 53E3ED75
Copy CRC 53E3ED75
Accurately ripped (confidence 84) [DA9C17D1] (AR v2)
Copy OK

Track 9

Filename Z:\OdW\MISSION (UK) [non-remasters]\1987 – The First Chapter (832 527-2)\09. The Mission – Like A Hurricane (Extended).wav

Pre-gap length 0:00:02.30

Peak level 100.0 %
Extraction speed 7.0 X
Track quality 99.9 %
Test CRC 56D91ACA
Copy CRC 56D91ACA
Accurately ripped (confidence 81) [4687B3E2] (AR v2)
Copy OK

All tracks accurately ripped

No errors occurred

End of status report

—- CUETools DB Plugin V2.1.6

[CTDB TOCID: LcsCn_nv.dx7Yu5j8j.FV6T5vQE-] found
Submit result: LcsCn_nv.dx7Yu5j8j.FV6T5vQE- has been confirmed
Track | CTDB Status
1 | (92/95) Accurately ripped
2 | (94/95) Accurately ripped
3 | (94/95) Accurately ripped
4 | (95/95) Accurately ripped
5 | (95/95) Accurately ripped
6 | (94/95) Accurately ripped
7 | (93/95) Accurately ripped
8 | (95/95) Accurately ripped
9 | (93/95) Accurately ripped

==== Log checksum 33E61EF752CB4CECEAF823D62D66C16D4E31BB2772056C68F27CF6C23B128E59 ====

REM GENRE “Gothic Rock”
REM DATE 1987
REM DISCID 5A0AC809
REM COMMENT “ExactAudioCopy v1.1”
PERFORMER “The Mission”
TITLE “The First Chapter (832 527-2)”
FILE “01. The Mission Ð Like A Hurricane.wav” WAVE
TRACK 01 AUDIO
TITLE “Like A Hurricane”
PERFORMER “The Mission”
PREGAP 00:00:33
INDEX 01 00:00:00
TRACK 02 AUDIO
TITLE “Over The Hills And Far Away”
PERFORMER “The Mission”
INDEX 00 05:00:25
FILE “02. The Mission Ð Over The Hills And Far Away.wav” WAVE
INDEX 01 00:00:00
TRACK 03 AUDIO
TITLE “Naked And Savage”
PERFORMER “The Mission”
INDEX 00 03:58:73
FILE “03. The Mission Ð Naked And Savage.wav” WAVE
INDEX 01 00:00:00
TRACK 04 AUDIO
TITLE “Serpents Kiss”
PERFORMER “The Mission”
INDEX 00 04:45:65
FILE “04. The Mission Ð Serpents Kiss.wav” WAVE
INDEX 01 00:00:00
TRACK 05 AUDIO
TITLE “Dancing Barefoot”
PERFORMER “The Mission”
INDEX 00 04:13:65
FILE “05. The Mission Ð Dancing Barefoot.wav” WAVE
INDEX 01 00:00:00
TRACK 06 AUDIO
TITLE “The Crystal Ocean (Extended)”
PERFORMER “The Mission”
INDEX 00 03:08:63
FILE “06. The Mission Ð The Crystal Ocean (Extended).wav” WAVE
INDEX 01 00:00:00
TRACK 07 AUDIO
TITLE “Garden Of Delight (Extended)”
PERFORMER “The Mission”
INDEX 00 07:36:73
FILE “07. The Mission Ð Garden Of Delight (Extended).wav” WAVE
INDEX 01 00:00:00
TRACK 08 AUDIO
TITLE “Wake (RSV)”
PERFORMER “The Mission”
INDEX 00 05:03:43
FILE “08. The Mission Ð Wake (RSV).wav” WAVE
INDEX 01 00:00:00
TRACK 09 AUDIO
TITLE “Like A Hurricane (Extended)”
PERFORMER “The Mission”
INDEX 00 05:01:68
FILE “09. The Mission Ð Like A Hurricane (Extended).wav” WAVE
INDEX 01 00:00:00


Leave a Reply

Your email address will not be published. Required fields are marked *

This site uses Akismet to reduce spam. Learn how your comment data is processed.