The Mission – The Brightest Light




Artist: The Mission
Year: 2013
Genre: Rock
Notes: Discogs
Add. Notes:
Cover incl.: Yes
Encoder: FLAC
Bitrate: ~1000 kBit/s (44.1 kHz/16 Bit/s)
Log & Cue incl.: Yes
Size: 759 MB
Password: “slam” (without ” “)


All Downloads/Hosters are compatible

Download 1
KatFile.com
Rapidgator.net
Turbobit.net
FileFactory.com
Download 2
KatFile.com
Rapidgator.net
Turbobit.net
FileFactory.com

Tracklist:

1-1 - Black Cat Bone - 8:06
1-2 - Everything But The Squeal - 
4:56
1-3 - Sometimes The Brightest Light 
Comes From The 
Darkest Place - 5:29
1-4 - Born Under A Good Sign - 4:14
1-5 - The Girl In A Furskin Rug - 3:49
1-6 - When The Trap Clicks Shut 
Behind Us - 4:47
1-7 - Ain't No Prayer In The Bible Can 
Save Me Now - 
5:15
1-8 - Just Another Pawn In Your 
Game - 3:47
1-9 - From The Oyster Comes The 
Pearl - 5:13
1-10 - Swan Song - 7:06
1-11 - Litany For The Faithful - 7:11

2-1 - Drag - 2:57
2-2 - I'm Fallin' Again - 5:46
2-3 - The Long Way 'Round Is 
Sometimes The Only Way 
Home - 3:54
2-4 - The Girl In The Furskin Rug 
(Wayne Hussey Demo) - 
3:46
2-5 - Born Under A Good Sign 
(Wayne Hussey Demo) - 
4:48
2-6 - Black Cat Bone (Wayne Hussey 
Demo) - 4:37
2-7 - From The Oyster Comes The 
Pearl (Wayne Hussey 
Demo) - 4:38
2-8 - When The Trap Clicks Shut 
Behind Us (Wayne 
Hussey Demo) - 4:45
2-9 - Ain’t No Prayer In The Bible Can 
Save Me Now 
(Wayne Hussey Demo With Erica 
Nockalls) - 5:37

EAC-Log, CUE-Sheed & NFO:

Click to open spoiler
Exact Audio Copy V1.1 from 23. June 2015

EAC extraction logfile from 16. February 2017, 23:18

The Mission / The Brightest Light (SPV 265990 2CD) CD 1

Used drive : HL-DT-STDVDRAM GE20NU11 Adapter: 1 ID: 0

Read mode : Secure
Utilize accurate stream : Yes
Defeat audio cache : Yes
Make use of C2 pointers : No

Read offset correction : 667
Overread into Lead-In and Lead-Out : No
Fill up missing offset samples with silence : Yes
Delete leading and trailing silent blocks : No
Null samples used in CRC calculations : Yes
Used interface : Native Win32 interface for Win NT & 2000
Gap handling : Appended to previous track

Used output format : User Defined Encoder
Selected bitrate : 896 kBit/s
Quality : High
Add ID3 tag : No
Command line compressor : C:\Program Files\EAC 3\Exact Audio Copy\Flac\flac.exe
Additional command line options : -V -8 -T “Genre=%genre%” -T “Artist=%artist%” -T “Title=%title%” -T “Album=%albumtitle%” -T “Date=%year%” -T “Tracknumber=%tracknr%” -T “Comment=%comment%” %source%

TOC of the extracted CD

Track | Start | Length | Start sector | End sector
———————————————————
1 | 0:00.00 | 8:06.14 | 0 | 36463
2 | 8:06.14 | 4:56.59 | 36464 | 58722
3 | 13:02.73 | 5:29.45 | 58723 | 83442
4 | 18:32.43 | 4:14.23 | 83443 | 102515
5 | 22:46.66 | 3:49.07 | 102516 | 119697
6 | 26:35.73 | 4:47.13 | 119698 | 141235
7 | 31:23.11 | 5:15.10 | 141236 | 164870
8 | 36:38.21 | 3:47.15 | 164871 | 181910
9 | 40:25.36 | 5:13.67 | 181911 | 205452
10 | 45:39.28 | 7:06.15 | 205453 | 237417
11 | 52:45.43 | 7:11.46 | 237418 | 269788

Track 1

Filename Z:\OdW\MISSION (UK) [non-remasters]\2013 – The Brightest Light (SPV 265990 2CD)\CD 1\01. The Mission – Black Cat Bone.wav

Pre-gap length 0:00:02.00

Peak level 100.0 %
Extraction speed 4.9 X
Track quality 100.0 %
Test CRC A86F3873
Copy CRC A86F3873
Accurately ripped (confidence 12) [9C868CBE] (AR v2)
Copy OK

Track 2

Filename Z:\OdW\MISSION (UK) [non-remasters]\2013 – The Brightest Light (SPV 265990 2CD)\CD 1\02. The Mission – Everything But The Squeal.wav

Peak level 100.0 %
Extraction speed 4.6 X
Track quality 99.9 %
Test CRC F2C2D99A
Copy CRC F2C2D99A
Accurately ripped (confidence 12) [D3209F00] (AR v2)
Copy OK

Track 3

Filename Z:\OdW\MISSION (UK) [non-remasters]\2013 – The Brightest Light (SPV 265990 2CD)\CD 1\03. The Mission – Sometimes The Brightest Light Comes From The Dark Place.wav

Peak level 100.0 %
Extraction speed 5.8 X
Track quality 100.0 %
Test CRC 5482327E
Copy CRC 5482327E
Accurately ripped (confidence 12) [EE72F71A] (AR v2)
Copy OK

Track 4

Filename Z:\OdW\MISSION (UK) [non-remasters]\2013 – The Brightest Light (SPV 265990 2CD)\CD 1\04. The Mission – Born Under A Good Sign.wav

Peak level 100.0 %
Extraction speed 5.1 X
Track quality 99.9 %
Test CRC 6718A2C4
Copy CRC 6718A2C4
Accurately ripped (confidence 12) [BF1EF5D3] (AR v2)
Copy OK

Track 5

Filename Z:\OdW\MISSION (UK) [non-remasters]\2013 – The Brightest Light (SPV 265990 2CD)\CD 1\05. The Mission – The Girl In A Furskin Rug.wav

Peak level 100.0 %
Extraction speed 5.1 X
Track quality 99.9 %
Test CRC 3AE82E1E
Copy CRC 3AE82E1E
Accurately ripped (confidence 12) [1F77EDC7] (AR v2)
Copy OK

Track 6

Filename Z:\OdW\MISSION (UK) [non-remasters]\2013 – The Brightest Light (SPV 265990 2CD)\CD 1\06. The Mission – When The Trap Clicks Shut Behind Us.wav

Peak level 100.0 %
Extraction speed 5.7 X
Track quality 99.9 %
Test CRC C1A22A24
Copy CRC C1A22A24
Accurately ripped (confidence 12) [494E0A6B] (AR v2)
Copy OK

Track 7

Filename Z:\OdW\MISSION (UK) [non-remasters]\2013 – The Brightest Light (SPV 265990 2CD)\CD 1\07. The Mission – Aint No Prayer In The Bible Can Save Me Now.wav

Peak level 100.0 %
Extraction speed 7.2 X
Track quality 100.0 %
Test CRC 14671006
Copy CRC 14671006
Accurately ripped (confidence 12) [656BF225] (AR v2)
Copy OK

Track 8

Filename Z:\OdW\MISSION (UK) [non-remasters]\2013 – The Brightest Light (SPV 265990 2CD)\CD 1\08. The Mission – Just Another Pawn In Your Game.wav

Peak level 100.0 %
Extraction speed 7.2 X
Track quality 100.0 %
Test CRC 94D4E6F9
Copy CRC 94D4E6F9
Accurately ripped (confidence 12) [0BDBEDD7] (AR v2)
Copy OK

Track 9

Filename Z:\OdW\MISSION (UK) [non-remasters]\2013 – The Brightest Light (SPV 265990 2CD)\CD 1\09. The Mission – From The Oyster Comes The Pearl.wav

Peak level 100.0 %
Extraction speed 7.7 X
Track quality 100.0 %
Test CRC E145E86E
Copy CRC E145E86E
Accurately ripped (confidence 12) [B61D1516] (AR v2)
Copy OK

Track 10

Filename Z:\OdW\MISSION (UK) [non-remasters]\2013 – The Brightest Light (SPV 265990 2CD)\CD 1\10. The Mission – Swan Song.wav

Peak level 100.0 %
Extraction speed 8.1 X
Track quality 100.0 %
Test CRC 491037CD
Copy CRC 491037CD
Accurately ripped (confidence 12) [E3DEC695] (AR v2)
Copy OK

Track 11

Filename Z:\OdW\MISSION (UK) [non-remasters]\2013 – The Brightest Light (SPV 265990 2CD)\CD 1\11. The Mission – Litany For The Faithful.wav

Peak level 100.0 %
Extraction speed 7.8 X
Track quality 99.9 %
Test CRC C9814AAC
Copy CRC C9814AAC
Accurately ripped (confidence 12) [9DDC7665] (AR v2)
Copy OK

All tracks accurately ripped

No errors occurred

End of status report

—- CUETools DB Plugin V2.1.6

[CTDB TOCID: TEPjyOkZOcNVyp6JMxDtf2HAEuY-] found
Submit result: TEPjyOkZOcNVyp6JMxDtf2HAEuY- has been confirmed
Track | CTDB Status
1 | (21/21) Accurately ripped
2 | (21/21) Accurately ripped
3 | (21/21) Accurately ripped
4 | (21/21) Accurately ripped
5 | (21/21) Accurately ripped
6 | (21/21) Accurately ripped
7 | (21/21) Accurately ripped
8 | (21/21) Accurately ripped
9 | (21/21) Accurately ripped
10 | (21/21) Accurately ripped
11 | (21/21) Accurately ripped

==== Log checksum 3969D1662B893A5A634378EB1BBEA3829091B0F27E036160F9B7FDD4D834A288 ====

Exact Audio Copy V1.1 from 23. June 2015

EAC extraction logfile from 16. February 2017, 23:48

The Mission / The Brightest Light (SPV 265990 2CD) CD 2

Used drive : HL-DT-STDVDRAM GE20NU11 Adapter: 1 ID: 0

Read mode : Secure
Utilize accurate stream : Yes
Defeat audio cache : Yes
Make use of C2 pointers : No

Read offset correction : 667
Overread into Lead-In and Lead-Out : No
Fill up missing offset samples with silence : Yes
Delete leading and trailing silent blocks : No
Null samples used in CRC calculations : Yes
Used interface : Native Win32 interface for Win NT & 2000
Gap handling : Appended to previous track

Used output format : User Defined Encoder
Selected bitrate : 896 kBit/s
Quality : High
Add ID3 tag : No
Command line compressor : C:\Program Files\EAC 3\Exact Audio Copy\Flac\flac.exe
Additional command line options : -V -8 -T “Genre=%genre%” -T “Artist=%artist%” -T “Title=%title%” -T “Album=%albumtitle%” -T “Date=%year%” -T “Tracknumber=%tracknr%” -T “Comment=%comment%” %source%

TOC of the extracted CD

Track | Start | Length | Start sector | End sector
———————————————————
1 | 0:00.00 | 2:57.47 | 0 | 13321
2 | 2:57.47 | 5:46.08 | 13322 | 39279
3 | 8:43.55 | 3:54.56 | 39280 | 56885
4 | 12:38.36 | 3:46.09 | 56886 | 73844
5 | 16:24.45 | 4:48.27 | 73845 | 95471
6 | 21:12.72 | 4:37.65 | 95472 | 116311
7 | 25:50.62 | 4:38.45 | 116312 | 137206
8 | 30:29.32 | 4:45.17 | 137207 | 158598
9 | 35:14.49 | 5:37.21 | 158599 | 183894

Track 1

Filename Z:\OdW\MISSION (UK) [non-remasters]\2013 – The Brightest Light (SPV 265990 2CD)\CD 2\01. The Mission – Drag.wav

Pre-gap length 0:00:02.00

Peak level 100.0 %
Extraction speed 3.2 X
Track quality 99.9 %
Test CRC 1EDA2706
Copy CRC 1EDA2706
Accurately ripped (confidence 10) [DD08BF7E] (AR v2)
Copy OK

Track 2

Filename Z:\OdW\MISSION (UK) [non-remasters]\2013 – The Brightest Light (SPV 265990 2CD)\CD 2\02. The Mission – Im Falling Again.wav

Pre-gap length 0:00:01.16

Peak level 100.0 %
Extraction speed 4.9 X
Track quality 100.0 %
Test CRC 272FD4F8
Copy CRC 272FD4F8
Accurately ripped (confidence 10) [20046FFB] (AR v2)
Copy OK

Track 3

Filename Z:\OdW\MISSION (UK) [non-remasters]\2013 – The Brightest Light (SPV 265990 2CD)\CD 2\03. The Mission – The Long Way Round Is Sometimes The Only Way Home.wav

Pre-gap length 0:00:00.41

Peak level 100.0 %
Extraction speed 5.2 X
Track quality 100.0 %
Test CRC A4173455
Copy CRC A4173455
Accurately ripped (confidence 10) [6141D821] (AR v2)
Copy OK

Track 4

Filename Z:\OdW\MISSION (UK) [non-remasters]\2013 – The Brightest Light (SPV 265990 2CD)\CD 2\04. The Mission – The Girl In A Furskin Rug (Wayne Hussey Demo).wav

Pre-gap length 0:00:00.50

Peak level 100.0 %
Extraction speed 4.6 X
Track quality 99.9 %
Test CRC 63250CD4
Copy CRC 63250CD4
Accurately ripped (confidence 10) [9FBAC14E] (AR v2)
Copy OK

Track 5

Filename Z:\OdW\MISSION (UK) [non-remasters]\2013 – The Brightest Light (SPV 265990 2CD)\CD 2\05. The Mission – Born Under A Good Sign (Wayne Hussey Demo).wav

Pre-gap length 0:00:00.40

Peak level 100.0 %
Extraction speed 5.9 X
Track quality 100.0 %
Test CRC B59D9A8A
Copy CRC B59D9A8A
Accurately ripped (confidence 10) [60EEDDDC] (AR v2)
Copy OK

Track 6

Filename Z:\OdW\MISSION (UK) [non-remasters]\2013 – The Brightest Light (SPV 265990 2CD)\CD 2\06. The Mission – Black Cat Bone (Wayne Hussey Demo).wav

Pre-gap length 0:00:02.04

Peak level 93.3 %
Extraction speed 5.4 X
Track quality 99.9 %
Test CRC 045B9E9C
Copy CRC 045B9E9C
Accurately ripped (confidence 10) [2E101DDF] (AR v2)
Copy OK

Track 7

Filename Z:\OdW\MISSION (UK) [non-remasters]\2013 – The Brightest Light (SPV 265990 2CD)\CD 2\07. The Mission – From The Oyster Comes The Pearl (Wayne Hussey Demo).wav

Pre-gap length 0:00:01.34

Peak level 94.2 %
Extraction speed 6.8 X
Track quality 100.0 %
Test CRC 0DAEC0CC
Copy CRC 0DAEC0CC
Accurately ripped (confidence 10) [8FBE6A4F] (AR v2)
Copy OK

Track 8

Filename Z:\OdW\MISSION (UK) [non-remasters]\2013 – The Brightest Light (SPV 265990 2CD)\CD 2\08. The Mission – When The Trap Clicks Shut Behind Us (Wayne Hussey Demo).wav

Pre-gap length 0:00:01.21

Peak level 100.0 %
Extraction speed 7.0 X
Track quality 100.0 %
Test CRC 0E1E2677
Copy CRC 0E1E2677
Accurately ripped (confidence 10) [FBCD31D6] (AR v2)
Copy OK

Track 9

Filename Z:\OdW\MISSION (UK) [non-remasters]\2013 – The Brightest Light (SPV 265990 2CD)\CD 2\09. The Mission – Aint No Prayer In The Bible Can Save Me Noew (Wayne Hussey Demo With Erica Nockalls).wav

Peak level 100.0 %
Extraction speed 7.5 X
Track quality 100.0 %
Test CRC 1A9F806D
Copy CRC 1A9F806D
Accurately ripped (confidence 9) [9A07A26F] (AR v2)
Copy OK

All tracks accurately ripped

No errors occurred

End of status report

—- CUETools DB Plugin V2.1.6

[CTDB TOCID: pqW4k9iCTOJ10w.q92i0o5kToRk-] found
Submit result: pqW4k9iCTOJ10w.q92i0o5kToRk- has been confirmed
Track | CTDB Status
1 | (20/20) Accurately ripped
2 | (20/20) Accurately ripped
3 | (20/20) Accurately ripped
4 | (20/20) Accurately ripped
5 | (20/20) Accurately ripped
6 | (20/20) Accurately ripped
7 | (20/20) Accurately ripped
8 | (20/20) Accurately ripped
9 | (20/20) Accurately ripped

==== Log checksum 4848B422C98704BB1212A6CCEC88E3A5C35090876BB00FF768379CCABD9CF84D ====

REM GENRE “Gothic Rock”
REM DATE 2013
REM DISCID A00E0D0B
REM COMMENT “ExactAudioCopy v1.1”
PERFORMER “The Mission”
TITLE “The Brightest Light (SPV 265990 2CD) CD 1”
FILE “01. The Mission Ð Black Cat Bone.wav” WAVE
TRACK 01 AUDIO
TITLE “Black Cat Bone”
PERFORMER “The Mission”
INDEX 01 00:00:00
FILE “02. The Mission Ð Everything But The Squeal.wav” WAVE
TRACK 02 AUDIO
TITLE “Everything But The Squeal”
PERFORMER “The Mission”
INDEX 01 00:00:00
FILE “03. The Mission Ð Sometimes The Brightest Light Comes From The Dark Place.wav” WAVE
TRACK 03 AUDIO
TITLE “Sometimes The Brightest Light Comes From The Dark Place”
PERFORMER “The Mission”
INDEX 01 00:00:00
FILE “04. The Mission Ð Born Under A Good Sign.wav” WAVE
TRACK 04 AUDIO
TITLE “Born Under A Good Sign”
PERFORMER “The Mission”
INDEX 01 00:00:00
FILE “05. The Mission Ð The Girl In A Furskin Rug.wav” WAVE
TRACK 05 AUDIO
TITLE “The Girl In A Furskin Rug”
PERFORMER “The Mission”
INDEX 01 00:00:00
FILE “06. The Mission Ð When The Trap Clicks Shut Behind Us.wav” WAVE
TRACK 06 AUDIO
TITLE “When The Trap Clicks Shut Behind Us”
PERFORMER “The Mission”
INDEX 01 00:00:00
FILE “07. The Mission Ð Aint No Prayer In The Bible Can Save Me Now.wav” WAVE
TRACK 07 AUDIO
TITLE “Aint No Prayer In The Bible Can Save Me Now”
PERFORMER “The Mission”
INDEX 01 00:00:00
FILE “08. The Mission Ð Just Another Pawn In Your Game.wav” WAVE
TRACK 08 AUDIO
TITLE “Just Another Pawn In Your Game”
PERFORMER “The Mission”
INDEX 01 00:00:00
FILE “09. The Mission Ð From The Oyster Comes The Pearl.wav” WAVE
TRACK 09 AUDIO
TITLE “From The Oyster Comes The Pearl”
PERFORMER “The Mission”
INDEX 01 00:00:00
FILE “10. The Mission Ð Swan Song.wav” WAVE
TRACK 10 AUDIO
TITLE “Swan Song”
PERFORMER “The Mission”
INDEX 01 00:00:00
FILE “11. The Mission Ð Litany For The Faithful.wav” WAVE
TRACK 11 AUDIO
TITLE “Litany For The Faithful”
PERFORMER “The Mission”
INDEX 01 00:00:00

REM GENRE “Gothic Rock”
REM DATE 2013
REM DISCID 75099309
REM COMMENT “ExactAudioCopy v1.1”
PERFORMER “The Mission”
TITLE “The Brightest Light (SPV 265990 2CD) CD 2”
FILE “01. The Mission Ð Drag.wav” WAVE
TRACK 01 AUDIO
TITLE “Drag”
PERFORMER “The Mission”
INDEX 01 00:00:00
TRACK 02 AUDIO
TITLE “Im Falling Again”
PERFORMER “The Mission”
INDEX 00 02:56:31
FILE “02. The Mission Ð Im Falling Again.wav” WAVE
INDEX 01 00:00:00
TRACK 03 AUDIO
TITLE “The Long Way Round Is Sometimes The Only Way Home”
PERFORMER “The Mission”
INDEX 00 05:45:42
FILE “03. The Mission Ð The Long Way Round Is Sometimes The Only Way Home.wav” WAVE
INDEX 01 00:00:00
TRACK 04 AUDIO
TITLE “The Girl In A Furskin Rug (Wayne Hussey Demo)”
PERFORMER “The Mission”
INDEX 00 03:54:06
FILE “04. The Mission Ð The Girl In A Furskin Rug (Wayne Hussey Demo).wav” WAVE
INDEX 01 00:00:00
TRACK 05 AUDIO
TITLE “Born Under A Good Sign (Wayne Hussey Demo)”
PERFORMER “The Mission”
INDEX 00 03:45:44
FILE “05. The Mission Ð Born Under A Good Sign (Wayne Hussey Demo).wav” WAVE
INDEX 01 00:00:00
TRACK 06 AUDIO
TITLE “Black Cat Bone (Wayne Hussey Demo)”
PERFORMER “The Mission”
INDEX 00 04:46:23
FILE “06. The Mission Ð Black Cat Bone (Wayne Hussey Demo).wav” WAVE
INDEX 01 00:00:00
TRACK 07 AUDIO
TITLE “From The Oyster Comes The Pearl (Wayne Hussey Demo)”
PERFORMER “The Mission”
INDEX 00 04:36:31
FILE “07. The Mission Ð From The Oyster Comes The Pearl (Wayne Hussey Demo).wav” WAVE
INDEX 01 00:00:00
TRACK 08 AUDIO
TITLE “When The Trap Clicks Shut Behind Us (Wayne Hussey Demo)”
PERFORMER “The Mission”
INDEX 00 04:37:24
FILE “08. The Mission Ð When The Trap Clicks Shut Behind Us (Wayne Hussey Demo).wav” WAVE
INDEX 01 00:00:00
FILE “09. The Mission Ð Aint No Prayer In The Bible Can Save Me Noew (Wayne Hussey Demo With Erica Nockalls).wav” WAVE
TRACK 09 AUDIO
TITLE “Aint No Prayer In The Bible Can Save Me Noew (Wayne Hussey Demo With Erica No…”
PERFORMER “The Mission”
INDEX 01 00:00:00


Leave a Reply

Your email address will not be published. Required fields are marked *

This site uses Akismet to reduce spam. Learn how your comment data is processed.