The Mission – Neverland




[Total: 0    Average: 0/5]

Artist: The Mission
Year: 1995
Genre: Alternative
Notes: Discogs
Add. Notes:
Cover incl.: Yes
Encoder: FLAC
Bitrate: ~800 kBit/s (44.1 kHz/16 Bit/s)
Log & Cue incl.: Yes
Size: 412,14 MB
Password: “slam” (without ” “)


All Downloads/Hosters are compatible

Download 1
Share-online.biz
KatFile.com
Rapidgator.net
Download 2
Share-online.biz
KatFile.com
Rapidgator.net

Tracklist:

1 - Raising Cain - 6:12
2 - Sway - 4:45
3 - Lose Myself In You - 4:22
4 - Swoon - 5:07
5 - Afterglow (Reprise) - 7:51
6 - Stars Don't Shine Without You - 4:57
7 - Celebration - 2:24
8 - Cry Like A Baby - 5:33
9 - Heaven Knows - 6:22
10 - Swim With The Dolphins - 3:18
11 - Neverland (Vocal) - 4:23
12 - Daddy's Going To Heaven Now - 11:09

EAC-Log, CUE-Sheed & NFO:

Click to open spoiler
Exact Audio Copy V1.1 from 23. June 2015

EAC extraction logfile from 17. February 2017, 13:32

The Mission / Neverland (SMEE CD001)

Used drive : HL-DT-STDVDRAM GE20NU11 Adapter: 1 ID: 0

Read mode : Secure
Utilize accurate stream : Yes
Defeat audio cache : Yes
Make use of C2 pointers : No

Read offset correction : 667
Overread into Lead-In and Lead-Out : No
Fill up missing offset samples with silence : Yes
Delete leading and trailing silent blocks : No
Null samples used in CRC calculations : Yes
Used interface : Native Win32 interface for Win NT & 2000
Gap handling : Appended to previous track

Used output format : User Defined Encoder
Selected bitrate : 896 kBit/s
Quality : High
Add ID3 tag : No
Command line compressor : C:\Program Files\EAC 3\Exact Audio Copy\Flac\flac.exe
Additional command line options : -V -8 -T “Genre=%genre%” -T “Artist=%artist%” -T “Title=%title%” -T “Album=%albumtitle%” -T “Date=%year%” -T “Tracknumber=%tracknr%” -T “Comment=%comment%” %source%

TOC of the extracted CD

Track | Start | Length | Start sector | End sector
———————————————————
1 | 0:00.00 | 6:12.07 | 0 | 27906
2 | 6:12.07 | 4:44.50 | 27907 | 49256
3 | 10:56.57 | 4:21.60 | 49257 | 68891
4 | 15:18.42 | 5:07.33 | 68892 | 91949
5 | 20:26.00 | 7:50.50 | 91950 | 127249
6 | 28:16.50 | 4:57.20 | 127250 | 149544
7 | 33:13.70 | 2:24.30 | 149545 | 160374
8 | 35:38.25 | 5:32.50 | 160375 | 185324
9 | 41:11.00 | 6:21.72 | 185325 | 213971
10 | 47:32.72 | 3:17.63 | 213972 | 228809
11 | 50:50.60 | 4:22.50 | 228810 | 248509
12 | 55:13.35 | 11:08.47 | 248510 | 298656

Track 1

Filename Z:\OdW\MISSION (UK) [non-remasters]\1995 – Neverland (SMEE CD001)\01. The Mission – Raising Cain.wav

Pre-gap length 0:00:02.00

Peak level 100.0 %
Extraction speed 4.6 X
Track quality 100.0 %
Test CRC 36AEC432
Copy CRC 36AEC432
Accurately ripped (confidence 2) [1B060CA7] (AR v2)
Copy OK

Track 2

Filename Z:\OdW\MISSION (UK) [non-remasters]\1995 – Neverland (SMEE CD001)\02. The Mission – Sway.wav

Peak level 97.9 %
Extraction speed 5.0 X
Track quality 100.0 %
Test CRC 6B1CC835
Copy CRC 6B1CC835
Accurately ripped (confidence 2) [8DE1D9E9] (AR v2)
Copy OK

Track 3

Filename Z:\OdW\MISSION (UK) [non-remasters]\1995 – Neverland (SMEE CD001)\03. The Mission – Lose Myself in You.wav

Peak level 85.9 %
Extraction speed 5.2 X
Track quality 100.0 %
Test CRC 4D387780
Copy CRC 4D387780
Accurately ripped (confidence 2) [41B4C0C0] (AR v2)
Copy OK

Track 4

Filename Z:\OdW\MISSION (UK) [non-remasters]\1995 – Neverland (SMEE CD001)\04. The Mission – Swoon.wav

Pre-gap length 0:00:01.37

Peak level 95.9 %
Extraction speed 5.0 X
Track quality 99.9 %
Test CRC 83C6CB89
Copy CRC 83C6CB89
Accurately ripped (confidence 2) [629BE87D] (AR v2)
Copy OK

Track 5

Filename Z:\OdW\MISSION (UK) [non-remasters]\1995 – Neverland (SMEE CD001)\05. The Mission – Afterglow (reprise).wav

Pre-gap length 0:00:00.15

Peak level 99.5 %
Extraction speed 6.4 X
Track quality 100.0 %
Test CRC E3C8D9DD
Copy CRC E3C8D9DD
Accurately ripped (confidence 2) [056E656E] (AR v2)
Copy OK

Track 6

Filename Z:\OdW\MISSION (UK) [non-remasters]\1995 – Neverland (SMEE CD001)\06. The Mission – Stars Don’t Shine Without You.wav

Peak level 64.8 %
Extraction speed 6.6 X
Track quality 100.0 %
Test CRC 7F72A47D
Copy CRC 7F72A47D
Accurately ripped (confidence 2) [A9536E44] (AR v2)
Copy OK

Track 7

Filename Z:\OdW\MISSION (UK) [non-remasters]\1995 – Neverland (SMEE CD001)\07. The Mission – Celebration.wav

Peak level 53.9 %
Extraction speed 4.6 X
Track quality 99.9 %
Test CRC EF1A802E
Copy CRC EF1A802E
Accurately ripped (confidence 2) [54808B6F] (AR v2)
Copy OK

Track 8

Filename Z:\OdW\MISSION (UK) [non-remasters]\1995 – Neverland (SMEE CD001)\08. The Mission – Cry Like a Baby.wav

Pre-gap length 0:00:01.18

Peak level 85.7 %
Extraction speed 6.1 X
Track quality 99.9 %
Test CRC FD2C8AD3
Copy CRC FD2C8AD3
Accurately ripped (confidence 2) [03EF95D9] (AR v2)
Copy OK

Track 9

Filename Z:\OdW\MISSION (UK) [non-remasters]\1995 – Neverland (SMEE CD001)\09. The Mission – Heaven Knows.wav

Peak level 76.2 %
Extraction speed 7.6 X
Track quality 100.0 %
Test CRC 1049B0A5
Copy CRC 1049B0A5
Accurately ripped (confidence 2) [A30EC042] (AR v2)
Copy OK

Track 10

Filename Z:\OdW\MISSION (UK) [non-remasters]\1995 – Neverland (SMEE CD001)\10. The Mission – Swim With The Dolphins.wav

Pre-gap length 0:00:00.20

Peak level 92.8 %
Extraction speed 5.7 X
Track quality 99.9 %
Test CRC 3260AD22
Copy CRC 3260AD22
Accurately ripped (confidence 2) [8B1E0491] (AR v2)
Copy OK

Track 11

Filename Z:\OdW\MISSION (UK) [non-remasters]\1995 – Neverland (SMEE CD001)\11. The Mission – Neverland (vocal).wav

Peak level 80.1 %
Extraction speed 7.6 X
Track quality 100.0 %
Test CRC 4E0CD4FA
Copy CRC 4E0CD4FA
Accurately ripped (confidence 2) [5698ABA7] (AR v2)
Copy OK

Track 12

Filename Z:\OdW\MISSION (UK) [non-remasters]\1995 – Neverland (SMEE CD001)\12. The Mission – Daddy’s Going To Heaven Now.wav

Peak level 88.7 %
Extraction speed 8.7 X
Track quality 100.0 %
Test CRC 5C61671E
Copy CRC 5C61671E
Accurately ripped (confidence 2) [D1864D51] (AR v2)
Copy OK

All tracks accurately ripped

No errors occurred

End of status report

—- CUETools DB Plugin V2.1.6

[CTDB TOCID: oc6wL5whybV9dy0ewVPdSBEZgTU-] found
Submit result: oc6wL5whybV9dy0ewVPdSBEZgTU- has been confirmed
Track | CTDB Status
1 | ( 11/103) Accurately ripped
2 | ( 11/103) Accurately ripped
3 | ( 11/103) Accurately ripped
4 | ( 11/103) Accurately ripped
5 | ( 11/103) Accurately ripped
6 | ( 11/103) Accurately ripped
7 | ( 11/103) Accurately ripped
8 | ( 11/103) Accurately ripped
9 | ( 11/103) Accurately ripped
10 | ( 11/103) Accurately ripped
11 | ( 11/103) Accurately ripped
12 | ( 11/103) Accurately ripped

==== Log checksum ED5EF51DB2BA202A9EB8E7CFB89BB832BD941AC776ECCA3D50A8D05D880FC032 ====

REM GENRE “Gothic Rock”
REM DATE 1995
REM DISCID AB0F8E0C
REM COMMENT “ExactAudioCopy v1.1”
PERFORMER “The Mission”
TITLE “Neverland (SMEE CD001)”
FILE “01. The Mission Ð Raising Cain.wav” WAVE
TRACK 01 AUDIO
TITLE “Raising Cain”
PERFORMER “The Mission”
INDEX 01 00:00:00
FILE “02. The Mission Ð Sway.wav” WAVE
TRACK 02 AUDIO
TITLE “Sway”
PERFORMER “The Mission”
INDEX 01 00:00:00
FILE “03. The Mission Ð Lose Myself in You.wav” WAVE
TRACK 03 AUDIO
TITLE “Lose Myself in You”
PERFORMER “The Mission”
INDEX 01 00:00:00
TRACK 04 AUDIO
TITLE “Swoon”
PERFORMER “The Mission”
INDEX 00 04:20:23
FILE “04. The Mission Ð Swoon.wav” WAVE
INDEX 01 00:00:00
TRACK 05 AUDIO
TITLE “Afterglow (reprise)”
PERFORMER “The Mission”
INDEX 00 05:07:18
FILE “05. The Mission Ð Afterglow (reprise).wav” WAVE
INDEX 01 00:00:00
FILE “06. The Mission Ð Stars Don’t Shine Without You.wav” WAVE
TRACK 06 AUDIO
TITLE “Stars Don’t Shine Without You”
PERFORMER “The Mission”
INDEX 01 00:00:00
FILE “07. The Mission Ð Celebration.wav” WAVE
TRACK 07 AUDIO
TITLE “Celebration”
PERFORMER “The Mission”
INDEX 01 00:00:00
TRACK 08 AUDIO
TITLE “Cry Like a Baby”
PERFORMER “The Mission”
INDEX 00 02:23:12
FILE “08. The Mission Ð Cry Like a Baby.wav” WAVE
INDEX 01 00:00:00
FILE “09. The Mission Ð Heaven Knows.wav” WAVE
TRACK 09 AUDIO
TITLE “Heaven Knows”
PERFORMER “The Mission”
INDEX 01 00:00:00
TRACK 10 AUDIO
TITLE “Swim With The Dolphins”
PERFORMER “The Mission”
INDEX 00 06:21:52
FILE “10. The Mission Ð Swim With The Dolphins.wav” WAVE
INDEX 01 00:00:00
FILE “11. The Mission Ð Neverland (vocal).wav” WAVE
TRACK 11 AUDIO
TITLE “Neverland (vocal)”
PERFORMER “The Mission”
INDEX 01 00:00:00
FILE “12. The Mission Ð Daddy’s Going To Heaven Now.wav” WAVE
TRACK 12 AUDIO
TITLE “Daddy’s Going To Heaven Now”
PERFORMER “The Mission”
INDEX 01 00:00:00


Spread the Download

Leave a Reply

Your email address will not be published. Required fields are marked *

Enter the text from the image below
 

This site uses Akismet to reduce spam. Learn how your comment data is processed.