The Mission – Masque




Artist: The Mission
Year: 1992
Genre: Rock
Notes: Discogs
Add. Notes:
Cover incl.: Yes
Encoder: FLAC
Bitrate: ~900 kBit/s (44.1 kHz/16 Bit/s)
Log & Cue incl.: Yes
Size: 401,19 MB
Password: “slam” (without ” “)


All Downloads/Hosters are compatible

Download 1
Turbobit.net
KatFile.com
Rapidgator.net
Download 2
Turbobit.net
KatFile.com
Rapidgator.net

Tracklist:

1 - Never Again - 5:06
2 - Shades Of Green (Part II) - 3:59
3 - Even You May Shine - 4:41
4 - Trail Of Scarlet - 3:44
5 - Spider And The Fly - 4:47
6 - She Conjures Me Wings - 2:48
7 - Sticks And Stones - 4:45
8 - Like A Child Again - 3:38
9 - Who Will Love Me Tomorrow? - 4:09
10 - You Make Me Breathe - 4:36
11 - From One Jesus To Another - 3:50
12 - Until There's Another Sunrise - 5:33

EAC-Log, CUE-Sheed & NFO:

Click to open spoiler
Exact Audio Copy V1.1 from 23. June 2015

EAC extraction logfile from 17. February 2017, 14:14

The Mission / Masque (512 121-2)

Used drive : HL-DT-STDVDRAM GE20NU11 Adapter: 1 ID: 0

Read mode : Secure
Utilize accurate stream : Yes
Defeat audio cache : Yes
Make use of C2 pointers : No

Read offset correction : 667
Overread into Lead-In and Lead-Out : No
Fill up missing offset samples with silence : Yes
Delete leading and trailing silent blocks : No
Null samples used in CRC calculations : Yes
Used interface : Native Win32 interface for Win NT & 2000
Gap handling : Appended to previous track

Used output format : User Defined Encoder
Selected bitrate : 896 kBit/s
Quality : High
Add ID3 tag : No
Command line compressor : C:\Program Files\EAC 3\Exact Audio Copy\Flac\flac.exe
Additional command line options : -V -8 -T “Genre=%genre%” -T “Artist=%artist%” -T “Title=%title%” -T “Album=%albumtitle%” -T “Date=%year%” -T “Tracknumber=%tracknr%” -T “Comment=%comment%” %source%

TOC of the extracted CD

Track | Start | Length | Start sector | End sector
———————————————————
1 | 0:00.32 | 5:06.38 | 32 | 23019
2 | 5:06.70 | 3:59.30 | 23020 | 40974
3 | 9:06.25 | 4:41.12 | 40975 | 62061
4 | 13:47.37 | 3:43.50 | 62062 | 78836
5 | 17:31.12 | 4:49.25 | 78837 | 100536
6 | 22:20.37 | 2:47.73 | 100537 | 113134
7 | 25:08.35 | 4:45.25 | 113135 | 134534
8 | 29:53.60 | 3:38.20 | 134535 | 150904
9 | 33:32.05 | 4:10.02 | 150905 | 169656
10 | 37:42.07 | 4:36.10 | 169657 | 190366
11 | 42:18.17 | 3:50.20 | 190367 | 207636
12 | 46:08.37 | 5:33.08 | 207637 | 232619

Track 1

Filename Z:\OdW\MISSION (UK) [non-remasters]\1992 – Masque (512 121-2)\01. The Mission – Never Again.wav

Pre-gap length 0:00:02.32

Peak level 97.3 %
Extraction speed 4.5 X
Track quality 100.0 %
Test CRC 609AB64F
Copy CRC 609AB64F
Accurately ripped (confidence 48) [6F91E1B3] (AR v2)
Copy OK

Track 2

Filename Z:\OdW\MISSION (UK) [non-remasters]\1992 – Masque (512 121-2)\02. The Mission – Shades Of Green – pt. 2.wav

Pre-gap length 0:00:00.03

Peak level 97.3 %
Extraction speed 4.0 X
Track quality 99.9 %
Test CRC 6A0BBA88
Copy CRC 6A0BBA88
Accurately ripped (confidence 48) [6C9955EB] (AR v2)
Copy OK

Track 3

Filename Z:\OdW\MISSION (UK) [non-remasters]\1992 – Masque (512 121-2)\03. The Mission – Even You May Shine.wav

Pre-gap length 0:00:00.03

Peak level 97.3 %
Extraction speed 4.5 X
Track quality 99.9 %
Test CRC 31E9C810
Copy CRC 31E9C810
Accurately ripped (confidence 48) [00710F7F] (AR v2)
Copy OK

Track 4

Filename Z:\OdW\MISSION (UK) [non-remasters]\1992 – Masque (512 121-2)\04. The Mission – Trail Of Scarlet.wav

Pre-gap length 0:00:00.12

Peak level 97.3 %
Extraction speed 5.4 X
Track quality 100.0 %
Test CRC 3D3134DB
Copy CRC 3D3134DB
Accurately ripped (confidence 48) [1DE3D05B] (AR v2)
Copy OK

Track 5

Filename Z:\OdW\MISSION (UK) [non-remasters]\1992 – Masque (512 121-2)\05. The Mission – Spider And The Fly.wav

Pre-gap length 0:00:00.02

Peak level 97.3 %
Extraction speed 6.1 X
Track quality 100.0 %
Test CRC 74FC46B1
Copy CRC 74FC46B1
Accurately ripped (confidence 48) [C4B4A8FA] (AR v2)
Copy OK

Track 6

Filename Z:\OdW\MISSION (UK) [non-remasters]\1992 – Masque (512 121-2)\06. The Mission – She Conjures Me Wings.wav

Pre-gap length 0:00:02.12

Peak level 97.3 %
Extraction speed 4.5 X
Track quality 99.9 %
Test CRC 69FBD606
Copy CRC 69FBD606
Accurately ripped (confidence 47) [A08D0C08] (AR v2)
Copy OK

Track 7

Filename Z:\OdW\MISSION (UK) [non-remasters]\1992 – Masque (512 121-2)\07. The Mission – Sticks And Stones.wav

Pre-gap length 0:00:00.03

Peak level 97.3 %
Extraction speed 6.6 X
Track quality 100.0 %
Test CRC F97DAB6E
Copy CRC F97DAB6E
Accurately ripped (confidence 47) [A27A0C9D] (AR v2)
Copy OK

Track 8

Filename Z:\OdW\MISSION (UK) [non-remasters]\1992 – Masque (512 121-2)\08. The Mission – Like A Child Again.wav

Pre-gap length 0:00:00.03

Peak level 97.3 %
Extraction speed 6.7 X
Track quality 100.0 %
Test CRC 303F5878
Copy CRC 303F5878
Accurately ripped (confidence 47) [7AFF0347] (AR v2)
Copy OK

Track 9

Filename Z:\OdW\MISSION (UK) [non-remasters]\1992 – Masque (512 121-2)\09. The Mission – Who Will Love Me Tomorrow.wav

Pre-gap length 0:00:00.03

Peak level 97.3 %
Extraction speed 6.9 X
Track quality 100.0 %
Test CRC 63E2F5BF
Copy CRC 63E2F5BF
Accurately ripped (confidence 48) [8D883CCE] (AR v2)
Copy OK

Track 10

Filename Z:\OdW\MISSION (UK) [non-remasters]\1992 – Masque (512 121-2)\10. The Mission – You Make Me Breathe.wav

Pre-gap length 0:00:00.35

Peak level 97.3 %
Extraction speed 7.1 X
Track quality 100.0 %
Test CRC 1CC78015
Copy CRC 1CC78015
Accurately ripped (confidence 45) [40854959] (AR v2)
Copy OK

Track 11

Filename Z:\OdW\MISSION (UK) [non-remasters]\1992 – Masque (512 121-2)\11. The Mission – From One Jesus To Another.wav

Pre-gap length 0:00:00.02

Peak level 97.3 %
Extraction speed 7.1 X
Track quality 100.0 %
Test CRC A724694B
Copy CRC A724694B
Accurately ripped (confidence 45) [C6351979] (AR v2)
Copy OK

Track 12

Filename Z:\OdW\MISSION (UK) [non-remasters]\1992 – Masque (512 121-2)\12. The Mission – Until There’s Another Sunrise.wav

Pre-gap length 0:00:00.02

Peak level 97.3 %
Extraction speed 7.9 X
Track quality 100.0 %
Test CRC 757117D6
Copy CRC 757117D6
Accurately ripped (confidence 47) [54DB3CA8] (AR v2)
Copy OK

All tracks accurately ripped

No errors occurred

End of status report

—- CUETools DB Plugin V2.1.6

[CTDB TOCID: BSjmTnqJV.BFCrpzyRr1.A0mZ_Y-] found
Submit result: BSjmTnqJV.BFCrpzyRr1.A0mZ_Y- has been confirmed
Track | CTDB Status
1 | (54/56) Accurately ripped
2 | (54/56) Accurately ripped
3 | (54/56) Accurately ripped
4 | (54/56) Accurately ripped
5 | (55/56) Accurately ripped
6 | (54/56) Accurately ripped
7 | (54/56) Accurately ripped
8 | (54/56) Accurately ripped
9 | (54/56) Accurately ripped
10 | (53/56) Accurately ripped
11 | (54/56) Accurately ripped
12 | (54/56) Accurately ripped

==== Log checksum 41CCA688AF319C7FD1C807B4E8F19CF4AACDF88E4507501DB015E3E6F35558B4 ====

REM GENRE “Gothic Rock”
REM DATE 1992
REM DISCID 910C1D0C
REM COMMENT “ExactAudioCopy v1.1”
PERFORMER “The Mission”
TITLE “Masque (512 121-2)”
FILE “01. The Mission Ð Never Again.wav” WAVE
TRACK 01 AUDIO
TITLE “Never Again”
PERFORMER “The Mission”
PREGAP 00:00:32
INDEX 01 00:00:00
TRACK 02 AUDIO
TITLE “Shades Of Green – pt. 2”
PERFORMER “The Mission”
INDEX 00 05:06:35
FILE “02. The Mission Ð Shades Of Green – pt. 2.wav” WAVE
INDEX 01 00:00:00
TRACK 03 AUDIO
TITLE “Even You May Shine”
PERFORMER “The Mission”
INDEX 00 03:59:27
FILE “03. The Mission Ð Even You May Shine.wav” WAVE
INDEX 01 00:00:00
TRACK 04 AUDIO
TITLE “Trail Of Scarlet”
PERFORMER “The Mission”
INDEX 00 04:41:00
FILE “04. The Mission Ð Trail Of Scarlet.wav” WAVE
INDEX 01 00:00:00
TRACK 05 AUDIO
TITLE “Spider And The Fly”
PERFORMER “The Mission”
INDEX 00 03:43:48
FILE “05. The Mission Ð Spider And The Fly.wav” WAVE
INDEX 01 00:00:00
TRACK 06 AUDIO
TITLE “She Conjures Me Wings”
PERFORMER “The Mission”
INDEX 00 04:47:13
FILE “06. The Mission Ð She Conjures Me Wings.wav” WAVE
INDEX 01 00:00:00
TRACK 07 AUDIO
TITLE “Sticks And Stones”
PERFORMER “The Mission”
INDEX 00 02:47:70
FILE “07. The Mission Ð Sticks And Stones.wav” WAVE
INDEX 01 00:00:00
TRACK 08 AUDIO
TITLE “Like A Child Again”
PERFORMER “The Mission”
INDEX 00 04:45:22
FILE “08. The Mission Ð Like A Child Again.wav” WAVE
INDEX 01 00:00:00
TRACK 09 AUDIO
TITLE “Who Will Love Me Tomorrow?”
PERFORMER “The Mission”
INDEX 00 03:38:17
FILE “09. The Mission Ð Who Will Love Me Tomorrow.wav” WAVE
INDEX 01 00:00:00
TRACK 10 AUDIO
TITLE “You Make Me Breathe”
PERFORMER “The Mission”
INDEX 00 04:09:42
FILE “10. The Mission Ð You Make Me Breathe.wav” WAVE
INDEX 01 00:00:00
TRACK 11 AUDIO
TITLE “From One Jesus To Another”
PERFORMER “The Mission”
INDEX 00 04:36:08
FILE “11. The Mission Ð From One Jesus To Another.wav” WAVE
INDEX 01 00:00:00
TRACK 12 AUDIO
TITLE “Until There’s Another Sunrise”
PERFORMER “The Mission”
INDEX 00 03:50:18
FILE “12. The Mission Ð Until There’s Another Sunrise.wav” WAVE
INDEX 01 00:00:00


Leave a Reply

Your email address will not be published. Required fields are marked *

This site uses Akismet to reduce spam. Learn how your comment data is processed.