The Mission – Grains of Sand




Artist: The Mission
Year: 1990
Genre: Rock
Notes: Discogs
Add. Notes:
Cover incl.: Yes
Encoder: FLAC
Bitrate: ~800 kBit/s (44.1 kHz/16 Bit/s)
Log & Cue incl.: Yes
Size: 311,73 MB
Password: “slam” (without ” “)


All Downloads/Hosters are compatible

Download 1
Turbobit.net
KatFile.com
Rapidgator.net
Download 2
Turbobit.net
KatFile.com
Rapidgator.net

Tracklist:

1 - Hands Across The Ocean - 3:49
2 - The Grip Of Disease - 4:12
3 - Divided We Fall - 3:40
4 - Mercenary - 2:50
5 - Mr. Pleasant - 2:50
6 - Kingdom Come (Forever And Again) - 4:57
7 - Heaven Sends You - 4:54
8 - Sweet Smile Of A Mystery - 3:55
9 - Tower Of Strength (The Casbah Mix) - 4:30
10 - Butterfly On A Wheel (Troubadour Mix) - 4:29
11 - Love - 1:51
12 - Bird Of Passage - 6:28

EAC-Log, CUE-Sheed & NFO:

Click to open spoiler
Exact Audio Copy V1.1 from 23. June 2015

EAC extraction logfile from 17. February 2017, 15:40

The Mission / Grains of Sand (846 937-2)

Used drive : HL-DT-STDVDRAM GE20NU11 Adapter: 1 ID: 0

Read mode : Secure
Utilize accurate stream : Yes
Defeat audio cache : Yes
Make use of C2 pointers : No

Read offset correction : 667
Overread into Lead-In and Lead-Out : No
Fill up missing offset samples with silence : Yes
Delete leading and trailing silent blocks : No
Null samples used in CRC calculations : Yes
Used interface : Native Win32 interface for Win NT & 2000
Gap handling : Appended to previous track

Used output format : User Defined Encoder
Selected bitrate : 896 kBit/s
Quality : High
Add ID3 tag : No
Command line compressor : C:\Program Files\EAC 3\Exact Audio Copy\Flac\flac.exe
Additional command line options : -V -8 -T “Genre=%genre%” -T “Artist=%artist%” -T “Title=%title%” -T “Album=%albumtitle%” -T “Date=%year%” -T “Tracknumber=%tracknr%” -T “Comment=%comment%” %source%

TOC of the extracted CD

Track | Start | Length | Start sector | End sector
———————————————————
1 | 0:00.00 | 3:49.70 | 0 | 17244
2 | 3:49.70 | 4:12.20 | 17245 | 36164
3 | 8:02.15 | 3:40.55 | 36165 | 52719
4 | 11:42.70 | 2:50.00 | 52720 | 65469
5 | 14:32.70 | 2:50.38 | 65470 | 78257
6 | 17:23.33 | 4:57.37 | 78258 | 100569
7 | 22:20.70 | 4:54.63 | 100570 | 122682
8 | 27:15.58 | 3:55.12 | 122683 | 140319
9 | 31:10.70 | 4:30.38 | 140320 | 160607
10 | 35:41.33 | 4:29.37 | 160608 | 180819
11 | 40:10.70 | 1:51.38 | 180820 | 189182
12 | 42:02.33 | 6:28.67 | 189183 | 218349

Track 1

Filename Z:\OdW\MISSION (UK) [non-remasters]\1990 – Grains of Sand (846 937-2)\01. The Mission – Hands Across The Ocean.wav

Pre-gap length 0:00:02.00

Peak level 98.7 %
Extraction speed 4.1 X
Track quality 100.0 %
Test CRC EA3CF114
Copy CRC EA3CF114
Accurately ripped (confidence 71) [872A4B40] (AR v2)
Copy OK

Track 2

Filename Z:\OdW\MISSION (UK) [non-remasters]\1990 – Grains of Sand (846 937-2)\02. The Mission – The Grip Of Disease.wav

Pre-gap length 0:00:01.67

Peak level 100.0 %
Extraction speed 4.3 X
Track quality 100.0 %
Test CRC 53206D49
Copy CRC 53206D49
Accurately ripped (confidence 72) [D76400AD] (AR v2)
Copy OK

Track 3

Filename Z:\OdW\MISSION (UK) [non-remasters]\1990 – Grains of Sand (846 937-2)\03. The Mission – Divided We Fall.wav

Pre-gap length 0:00:00.42

Peak level 97.7 %
Extraction speed 2.7 X
Track quality 99.9 %
Test CRC D771CC5B
Copy CRC D771CC5B
Accurately ripped (confidence 71) [C7BF8089] (AR v2)
Copy OK

Track 4

Filename Z:\OdW\MISSION (UK) [non-remasters]\1990 – Grains of Sand (846 937-2)\04. The Mission – Mercenary.wav

Pre-gap length 0:00:01.70

Peak level 100.0 %
Extraction speed 2.7 X
Track quality 99.9 %
Test CRC 70648853
Copy CRC 70648853
Accurately ripped (confidence 71) [80F2147B] (AR v2)
Copy OK

Track 5

Filename Z:\OdW\MISSION (UK) [non-remasters]\1990 – Grains of Sand (846 937-2)\05. The Mission – Mr. Pleasant.wav

Pre-gap length 0:00:00.32

Peak level 96.3 %
Extraction speed 3.3 X
Track quality 100.0 %
Test CRC 8651BFE5
Copy CRC 8651BFE5
Accurately ripped (confidence 72) [8FC8AC0C] (AR v2)
Copy OK

Track 6

Filename Z:\OdW\MISSION (UK) [non-remasters]\1990 – Grains of Sand (846 937-2)\06. The Mission – Kingdom Come (Forever And Again).wav

Pre-gap length 0:00:01.30

Peak level 100.0 %
Extraction speed 3.4 X
Track quality 99.9 %
Test CRC F3D8DC08
Copy CRC F3D8DC08
Accurately ripped (confidence 71) [B124167B] (AR v2)
Copy OK

Track 7

Filename Z:\OdW\MISSION (UK) [non-remasters]\1990 – Grains of Sand (846 937-2)\07. The Mission – Heaven Sends You.wav

Pre-gap length 0:00:00.07

Peak level 99.8 %
Extraction speed 4.1 X
Track quality 100.0 %
Test CRC 047C1753
Copy CRC 047C1753
Accurately ripped (confidence 72) [490F8C0C] (AR v2)
Copy OK

Track 8

Filename Z:\OdW\MISSION (UK) [non-remasters]\1990 – Grains of Sand (846 937-2)\08. The Mission – Sweet Smile Of A Mystery.wav

Pre-gap length 0:00:01.45

Peak level 95.9 %
Extraction speed 4.1 X
Track quality 100.0 %
Test CRC AB5FFAC8
Copy CRC AB5FFAC8
Accurately ripped (confidence 71) [0FE1C31F] (AR v2)
Copy OK

Track 9

Filename Z:\OdW\MISSION (UK) [non-remasters]\1990 – Grains of Sand (846 937-2)\09. The Mission – Tower Of Strength (The Casbah Mix).wav

Pre-gap length 0:00:01.37

Peak level 97.7 %
Extraction speed 4.4 X
Track quality 100.0 %
Test CRC 1BD5E110
Copy CRC 1BD5E110
Accurately ripped (confidence 69) [4093B50B] (AR v2)
Copy OK

Track 10

Filename Z:\OdW\MISSION (UK) [non-remasters]\1990 – Grains of Sand (846 937-2)\10. The Mission – Butterfly On A Wheel (Troubadour Mix).wav

Pre-gap length 0:00:00.43

Peak level 94.6 %
Extraction speed 4.6 X
Track quality 100.0 %
Test CRC FBF92590
Copy CRC FBF92590
Accurately ripped (confidence 71) [D9977312] (AR v2)
Copy OK

Track 11

Filename Z:\OdW\MISSION (UK) [non-remasters]\1990 – Grains of Sand (846 937-2)\11. The Mission – Love.wav

Pre-gap length 0:00:01.02

Peak level 90.8 %
Extraction speed 3.9 X
Track quality 100.0 %
Test CRC BC0707A6
Copy CRC BC0707A6
Accurately ripped (confidence 71) [FBEFCCB4] (AR v2)
Copy OK

Track 12

Filename Z:\OdW\MISSION (UK) [non-remasters]\1990 – Grains of Sand (846 937-2)\12. The Mission – Bird Of Passage.wav

Pre-gap length 0:00:01.05

Peak level 91.2 %
Extraction speed 5.2 X
Track quality 100.0 %
Test CRC 50604A71
Copy CRC 50604A71
Accurately ripped (confidence 70) [2BE59A8C] (AR v2)
Copy OK

All tracks accurately ripped

No errors occurred

End of status report

—- CUETools DB Plugin V2.1.6

[CTDB TOCID: O1NFAyi1ZY5YOd.wBcQLZnZW0MA-] found
Submit result: O1NFAyi1ZY5YOd.wBcQLZnZW0MA- has been confirmed
Track | CTDB Status
1 | (151/153) Accurately ripped
2 | (149/153) Accurately ripped
3 | (150/153) Accurately ripped
4 | (151/153) Accurately ripped
5 | (150/153) Accurately ripped
6 | (148/153) Accurately ripped
7 | (150/153) Accurately ripped
8 | (150/153) Accurately ripped
9 | (148/153) Accurately ripped
10 | (144/153) Accurately ripped
11 | (149/153) Accurately ripped
12 | (143/153) Accurately ripped

==== Log checksum 1CA54EB17953A23F86D9CAFCF247D01034D0656B536CD13CAF166B28CF1960F3 ====

REM GENRE “Gothic Rock”
REM DATE 1990
REM DISCID 8D0B5F0C
REM COMMENT “ExactAudioCopy v1.1”
PERFORMER “The Mission”
TITLE “Grains of Sand (846 937-2)”
FILE “01. The Mission Ð Hands Across The Ocean.wav” WAVE
TRACK 01 AUDIO
TITLE “Hands Across The Ocean”
PERFORMER “The Mission”
INDEX 01 00:00:00
TRACK 02 AUDIO
TITLE “The Grip Of Disease”
PERFORMER “The Mission”
INDEX 00 03:48:03
FILE “02. The Mission Ð The Grip Of Disease.wav” WAVE
INDEX 01 00:00:00
TRACK 03 AUDIO
TITLE “Divided We Fall”
PERFORMER “The Mission”
INDEX 00 04:11:53
FILE “03. The Mission Ð Divided We Fall.wav” WAVE
INDEX 01 00:00:00
TRACK 04 AUDIO
TITLE “Mercenary”
PERFORMER “The Mission”
INDEX 00 03:38:60
FILE “04. The Mission Ð Mercenary.wav” WAVE
INDEX 01 00:00:00
TRACK 05 AUDIO
TITLE “Mr. Pleasant”
PERFORMER “The Mission”
INDEX 00 02:49:43
FILE “05. The Mission Ð Mr. Pleasant.wav” WAVE
INDEX 01 00:00:00
TRACK 06 AUDIO
TITLE “Kingdom Come (Forever And Again)”
PERFORMER “The Mission”
INDEX 00 02:49:08
FILE “06. The Mission Ð Kingdom Come (Forever And Again).wav” WAVE
INDEX 01 00:00:00
TRACK 07 AUDIO
TITLE “Heaven Sends You”
PERFORMER “The Mission”
INDEX 00 04:57:30
FILE “07. The Mission Ð Heaven Sends You.wav” WAVE
INDEX 01 00:00:00
TRACK 08 AUDIO
TITLE “Sweet Smile Of A Mystery”
PERFORMER “The Mission”
INDEX 00 04:53:18
FILE “08. The Mission Ð Sweet Smile Of A Mystery.wav” WAVE
INDEX 01 00:00:00
TRACK 09 AUDIO
TITLE “Tower Of Strength (The Casbah Mix)”
PERFORMER “The Mission”
INDEX 00 03:53:50
FILE “09. The Mission Ð Tower Of Strength (The Casbah Mix).wav” WAVE
INDEX 01 00:00:00
TRACK 10 AUDIO
TITLE “Butterfly On A Wheel (Troubadour Mix)”
PERFORMER “The Mission”
INDEX 00 04:29:70
FILE “10. The Mission Ð Butterfly On A Wheel (Troubadour Mix).wav” WAVE
INDEX 01 00:00:00
TRACK 11 AUDIO
TITLE “Love”
PERFORMER “The Mission”
INDEX 00 04:28:35
FILE “11. The Mission Ð Love.wav” WAVE
INDEX 01 00:00:00
TRACK 12 AUDIO
TITLE “Bird Of Passage”
PERFORMER “The Mission”
INDEX 00 01:50:33
FILE “12. The Mission Ð Bird Of Passage.wav” WAVE
INDEX 01 00:00:00


Leave a Reply

Your email address will not be published. Required fields are marked *

This site uses Akismet to reduce spam. Learn how your comment data is processed.