The Mission – Gods Own Medicine




Artist: The Mission
Year: 1986
Genre: Rock
Notes: Discogs
Add. Notes:
Cover incl.: Yes
Encoder: FLAC
Bitrate: ~900 kBit/s (44.1 kHz/16 Bit/s)
Log & Cue incl.: Yes
Size: 401,4 MB
Password: “slam” (without ” “)


All Downloads/Hosters are compatible

Download 1
KatFile.com
Turbobit.net
Rapidgator.net
Usersdrive.com
Download 2
KatFile.com
Turbobit.net
Rapidgator.net
Usersdrive.com

Tracklist:

1 - Wasteland - 5:42
2 - Bridges Burning - 4:08
3 - Garden Of Delight (Hereafter) - 3:42
4 - Stay With Me - 4:37
5 - Blood Brother - 5:16
6 - Let Sleeping Dogs Die - 5:53
7 - Sacrilege - 4:45
8 - Dance On Glass - 5:10
9 - And The Dance Goes On - 4:10
10 - Severina - 4:15
11 - Love Me To Death - 4:38
12 - Island In A Stream - 5:25

EAC-Log, CUE-Sheed & NFO:

Click to open spoiler
Exact Audio Copy V1.1 from 23. June 2015

EAC extraction logfile from 17. February 2017, 21:49

The Mission / Gods Own Medicine (830 603-2)

Used drive : HL-DT-STDVDRAM GE20NU11 Adapter: 1 ID: 0

Read mode : Secure
Utilize accurate stream : Yes
Defeat audio cache : Yes
Make use of C2 pointers : No

Read offset correction : 667
Overread into Lead-In and Lead-Out : No
Fill up missing offset samples with silence : Yes
Delete leading and trailing silent blocks : No
Null samples used in CRC calculations : Yes
Used interface : Native Win32 interface for Win NT & 2000
Gap handling : Appended to previous track

Used output format : User Defined Encoder
Selected bitrate : 896 kBit/s
Quality : High
Add ID3 tag : No
Command line compressor : C:\Program Files\EAC 3\Exact Audio Copy\Flac\flac.exe
Additional command line options : -V -8 -T “Genre=%genre%” -T “Artist=%artist%” -T “Title=%title%” -T “Album=%albumtitle%” -T “Date=%year%” -T “Tracknumber=%tracknr%” -T “Comment=%comment%” %source%

TOC of the extracted CD

Track | Start | Length | Start sector | End sector
———————————————————
1 | 0:00.33 | 5:40.50 | 33 | 25582
2 | 5:41.08 | 4:08.62 | 25583 | 44244
3 | 9:49.70 | 3:45.05 | 44245 | 61124
4 | 13:35.00 | 4:37.25 | 61125 | 81924
5 | 18:12.25 | 5:15.30 | 81925 | 105579
6 | 23:27.55 | 5:51.50 | 105580 | 131954
7 | 29:19.30 | 4:46.43 | 131955 | 153447
8 | 34:05.73 | 5:13.55 | 153448 | 176977
9 | 39:19.53 | 4:09.42 | 176978 | 195694
10 | 43:29.20 | 4:22.35 | 195695 | 215379
11 | 47:51.55 | 4:40.55 | 215380 | 236434
12 | 52:32.35 | 5:25.38 | 236435 | 260847

Track 1

Filename Z:\OdW\MISSION (UK) [non-remasters]\1986 – Gods Own Medicine (830 603-2)\01. The Mission – Wasteland.wav

Pre-gap length 0:00:02.33

Peak level 96.2 %
Extraction speed 1.2 X
Track quality 100.0 %
Test CRC 36B64E89
Copy CRC 36B64E89
Accurately ripped (confidence 126) [5F997DDE] (AR v2)
Copy OK

Track 2

Filename Z:\OdW\MISSION (UK) [non-remasters]\1986 – Gods Own Medicine (830 603-2)\02. The Mission – Bridges Burning.wav

Peak level 98.8 %
Extraction speed 1.4 X
Track quality 100.0 %
Test CRC 72725F6C
Copy CRC 72725F6C
Accurately ripped (confidence 126) [7A58DB00] (AR v2)
Copy OK

Track 3

Filename Z:\OdW\MISSION (UK) [non-remasters]\1986 – Gods Own Medicine (830 603-2)\03. The Mission – Garden Of Delight (Hereafter).wav

Pre-gap length 0:00:00.01

Peak level 68.2 %
Extraction speed 1.2 X
Track quality 99.9 %
Test CRC 6ACF55D3
Copy CRC 6ACF55D3
Accurately ripped (confidence 127) [9AC42CAE] (AR v2)
Copy OK

Track 4

Filename Z:\OdW\MISSION (UK) [non-remasters]\1986 – Gods Own Medicine (830 603-2)\04. The Mission – Stay With Me.wav

Pre-gap length 0:00:00.27

Peak level 90.8 %
Extraction speed 1.6 X
Track quality 100.0 %
Test CRC BE178AA5
Copy CRC BE178AA5
Accurately ripped (confidence 125) [4A53BC2E] (AR v2)
Copy OK

Track 5

Filename Z:\OdW\MISSION (UK) [non-remasters]\1986 – Gods Own Medicine (830 603-2)\05. The Mission – Blood Brother.wav

Peak level 91.0 %
Extraction speed 1.5 X
Track quality 99.9 %
Test CRC EBF1FEEC
Copy CRC EBF1FEEC
Accurately ripped (confidence 125) [E2FBD91C] (AR v2)
Copy OK

Track 6

Filename Z:\OdW\MISSION (UK) [non-remasters]\1986 – Gods Own Medicine (830 603-2)\06. The Mission – Let Sleeping Dogs Die.wav

Peak level 96.1 %
Extraction speed 1.9 X
Track quality 100.0 %
Test CRC FBB29492
Copy CRC FBB29492
Accurately ripped (confidence 125) [1369FF17] (AR v2)
Copy OK

Track 7

Filename Z:\OdW\MISSION (UK) [non-remasters]\1986 – Gods Own Medicine (830 603-2)\07. The Mission – Sacrilege.wav

Pre-gap length 0:00:00.12

Peak level 97.5 %
Extraction speed 1.9 X
Track quality 100.0 %
Test CRC D20CF7DC
Copy CRC D20CF7DC
Accurately ripped (confidence 125) [B9B0653D] (AR v2)
Copy OK

Track 8

Filename Z:\OdW\MISSION (UK) [non-remasters]\1986 – Gods Own Medicine (830 603-2)\08. The Mission – Dance On Glass.wav

Peak level 100.0 %
Extraction speed 1.8 X
Track quality 99.9 %
Test CRC 4AC11B07
Copy CRC 4AC11B07
Accurately ripped (confidence 125) [00D982E3] (AR v2)
Copy OK

Track 9

Filename Z:\OdW\MISSION (UK) [non-remasters]\1986 – Gods Own Medicine (830 603-2)\09. The Mission – And The Dance Goes On.wav

Pre-gap length 0:00:00.18

Peak level 85.1 %
Extraction speed 2.0 X
Track quality 100.0 %
Test CRC 3FA1512F
Copy CRC 3FA1512F
Accurately ripped (confidence 125) [E0CB160B] (AR v2)
Copy OK

Track 10

Filename Z:\OdW\MISSION (UK) [non-remasters]\1986 – Gods Own Medicine (830 603-2)\10. The Mission – Severina.wav

Peak level 82.0 %
Extraction speed 0.2 X
Track quality 100.0 %
Test CRC CAE6F16A
Copy CRC CAE6F16A
Accurately ripped (confidence 125) [8FF57DD1] (AR v2)
Copy OK

Track 11

Filename Z:\OdW\MISSION (UK) [non-remasters]\1986 – Gods Own Medicine (830 603-2)\11. The Mission – Love Me To Death.wav

Pre-gap length 0:00:01.02

Peak level 97.8 %
Extraction speed 2.2 X
Track quality 100.0 %
Test CRC 825093FA
Copy CRC 825093FA
Accurately ripped (confidence 122) [9E4A8161] (AR v2)
Copy OK

Track 12

Filename Z:\OdW\MISSION (UK) [non-remasters]\1986 – Gods Own Medicine (830 603-2)\12. The Mission – Island In A Stream.wav

Pre-gap length 0:00:00.15

Peak level 94.6 %
Extraction speed 2.5 X
Track quality 100.0 %
Test CRC 79365B7D
Copy CRC 79365B7D
Accurately ripped (confidence 120) [EE4D068A] (AR v2)
Copy OK

All tracks accurately ripped

No errors occurred

End of status report

—- CUETools DB Plugin V2.1.6

[CTDB TOCID: j1yqG6o.Mcq0970Dx0IdJJfA89g-] found
Submit result: j1yqG6o.Mcq0970Dx0IdJJfA89g- has been confirmed
Track | CTDB Status
1 | (146/147) Accurately ripped
2 | (146/147) Accurately ripped
3 | (147/147) Accurately ripped
4 | (147/147) Accurately ripped
5 | (147/147) Accurately ripped
6 | (147/147) Accurately ripped
7 | (147/147) Accurately ripped
8 | (145/147) Accurately ripped
9 | (145/147) Accurately ripped
10 | (146/147) Accurately ripped
11 | (145/147) Accurately ripped
12 | (146/147) Accurately ripped

==== Log checksum BACF45676E3D6B769FDFF178144271355E2FBCD0767B882780A1F9285AD22693 ====

REM GENRE “Gothic Rock”
REM DATE 1986
REM DISCID 9A0D950C
REM COMMENT “ExactAudioCopy v1.1”
PERFORMER “The Mission”
TITLE “Gods Own Medicine (830 603-2)”
FILE “01. The Mission Ð Wasteland.wav” WAVE
TRACK 01 AUDIO
TITLE “Wasteland”
PERFORMER “The Mission”
PREGAP 00:00:33
INDEX 01 00:00:00
FILE “02. The Mission Ð Bridges Burning.wav” WAVE
TRACK 02 AUDIO
TITLE “Bridges Burning”
PERFORMER “The Mission”
INDEX 01 00:00:00
TRACK 03 AUDIO
TITLE “Garden Of Delight (Hereafter)”
PERFORMER “The Mission”
INDEX 00 04:08:61
FILE “03. The Mission Ð Garden Of Delight (Hereafter).wav” WAVE
INDEX 01 00:00:00
TRACK 04 AUDIO
TITLE “Stay With Me”
PERFORMER “The Mission”
INDEX 00 03:44:53
FILE “04. The Mission Ð Stay With Me.wav” WAVE
INDEX 01 00:00:00
FILE “05. The Mission Ð Blood Brother.wav” WAVE
TRACK 05 AUDIO
TITLE “Blood Brother”
PERFORMER “The Mission”
INDEX 01 00:00:00
FILE “06. The Mission Ð Let Sleeping Dogs Die.wav” WAVE
TRACK 06 AUDIO
TITLE “Let Sleeping Dogs Die”
PERFORMER “The Mission”
INDEX 01 00:00:00
TRACK 07 AUDIO
TITLE “Sacrilege”
PERFORMER “The Mission”
INDEX 00 05:51:38
FILE “07. The Mission Ð Sacrilege.wav” WAVE
INDEX 01 00:00:00
FILE “08. The Mission Ð Dance On Glass.wav” WAVE
TRACK 08 AUDIO
TITLE “Dance On Glass”
PERFORMER “The Mission”
INDEX 01 00:00:00
TRACK 09 AUDIO
TITLE “And The Dance Goes On”
PERFORMER “The Mission”
INDEX 00 05:13:37
FILE “09. The Mission Ð And The Dance Goes On.wav” WAVE
INDEX 01 00:00:00
FILE “10. The Mission Ð Severina.wav” WAVE
TRACK 10 AUDIO
TITLE “Severina”
PERFORMER “The Mission”
INDEX 01 00:00:00
TRACK 11 AUDIO
TITLE “Love Me To Death”
PERFORMER “The Mission”
INDEX 00 04:21:33
FILE “11. The Mission Ð Love Me To Death.wav” WAVE
INDEX 01 00:00:00
TRACK 12 AUDIO
TITLE “Island In A Stream”
PERFORMER “The Mission”
INDEX 00 04:40:40
FILE “12. The Mission Ð Island In A Stream.wav” WAVE
INDEX 01 00:00:00


Leave a Reply

Your email address will not be published. Required fields are marked *

This site uses Akismet to reduce spam. Learn how your comment data is processed.