The Mission – Carved In Sand




Artist: The Mission
Year: 1990
Genre: Rock
Notes: Discogs
Add. Notes:
Cover incl.: Yes
Encoder: FLAC
Bitrate: ~800 kBit/s (44.1 kHz/16 Bit/s)
Log & Cue incl.: Yes
Size: 361,8 MB
Password: “slam” (without ” “)


All Downloads/Hosters are compatible

Download 1
Turbobit.net
NitroFlare.com
KatFile.com
Rapidgator.net
Download 2
Turbobit.net
NitroFlare.com
KatFile.com
Rapidgator.net

Tracklist:

1 - Amelia - 2:53
2 - Into The Blue - 4:14
3 - Butterfly On A Wheel - 5:43
4 - Sea Of Love - 5:20
5 - Deliverance - 6:04
6 - Grapes Of Wrath - 4:19
7 - Belief - 7:35
8 - Paradise (Will Shine Like The Moon) - 3:52
9 - Hungry As The Hunter - 5:16
10 - Lovely - 1:56

EAC-Log, CUE-Sheed & NFO:

Click to open spoiler
Exact Audio Copy V1.1 from 23. June 2015

EAC extraction logfile from 17. February 2017, 17:21

The Mission / Carved In Sand (842 251-2)

Used drive : HL-DT-STDVDRAM GE20NU11 Adapter: 1 ID: 0

Read mode : Secure
Utilize accurate stream : Yes
Defeat audio cache : Yes
Make use of C2 pointers : No

Read offset correction : 667
Overread into Lead-In and Lead-Out : No
Fill up missing offset samples with silence : Yes
Delete leading and trailing silent blocks : No
Null samples used in CRC calculations : Yes
Used interface : Native Win32 interface for Win NT & 2000
Gap handling : Appended to previous track

Used output format : User Defined Encoder
Selected bitrate : 896 kBit/s
Quality : High
Add ID3 tag : No
Command line compressor : C:\Program Files\EAC 3\Exact Audio Copy\Flac\flac.exe
Additional command line options : -V -8 -T “Genre=%genre%” -T “Artist=%artist%” -T “Title=%title%” -T “Album=%albumtitle%” -T “Date=%year%” -T “Tracknumber=%tracknr%” -T “Comment=%comment%” %source%

TOC of the extracted CD

Track | Start | Length | Start sector | End sector
———————————————————
1 | 0:00.33 | 2:53.17 | 33 | 13024
2 | 2:53.50 | 4:14.23 | 13025 | 32097
3 | 7:07.73 | 5:43.37 | 32098 | 57859
4 | 12:51.35 | 5:20.30 | 57860 | 81889
5 | 18:11.65 | 6:04.13 | 81890 | 109202
6 | 24:16.03 | 4:19.70 | 109203 | 128697
7 | 28:35.73 | 7:35.45 | 128698 | 162867
8 | 36:11.43 | 3:52.10 | 162868 | 180277
9 | 40:03.53 | 5:16.15 | 180278 | 203992
10 | 45:19.68 | 1:56.02 | 203993 | 212694

Track 1

Filename Z:\OdW\MISSION (UK) [non-remasters]\1990 – Carved In Sand (842 251-2)\01. The Mission – Amelia.wav

Pre-gap length 0:00:02.33

Peak level 85.8 %
Extraction speed 3.8 X
Track quality 100.0 %
Test CRC C1174AC8
Copy CRC C1174AC8
Accurately ripped (confidence 132) [3DA79D6C] (AR v2)
Copy OK

Track 2

Filename Z:\OdW\MISSION (UK) [non-remasters]\1990 – Carved In Sand (842 251-2)\02. The Mission – Into the Blue.wav

Peak level 78.3 %
Extraction speed 3.9 X
Track quality 99.9 %
Test CRC EF29AA62
Copy CRC EF29AA62
Accurately ripped (confidence 131) [FB6A3F21] (AR v2)
Copy OK

Track 3

Filename Z:\OdW\MISSION (UK) [non-remasters]\1990 – Carved In Sand (842 251-2)\03. The Mission – Butterfly on a Wheel.wav

Pre-gap length 0:00:03.15

Peak level 100.0 %
Extraction speed 5.2 X
Track quality 100.0 %
Test CRC C51D186E
Copy CRC C51D186E
Accurately ripped (confidence 132) [D19B6E20] (AR v2)
Copy OK

Track 4

Filename Z:\OdW\MISSION (UK) [non-remasters]\1990 – Carved In Sand (842 251-2)\04. The Mission – Sea of Love.wav

Pre-gap length 0:00:02.52

Peak level 82.9 %
Extraction speed 5.7 X
Track quality 100.0 %
Test CRC B0E2DF8E
Copy CRC B0E2DF8E
Accurately ripped (confidence 132) [C1758146] (AR v2)
Copy OK

Track 5

Filename Z:\OdW\MISSION (UK) [non-remasters]\1990 – Carved In Sand (842 251-2)\05. The Mission – Deliverance.wav

Peak level 81.2 %
Extraction speed 5.5 X
Track quality 99.9 %
Test CRC AA39FE15
Copy CRC AA39FE15
Accurately ripped (confidence 131) [22E91F6A] (AR v2)
Copy OK

Track 6

Filename Z:\OdW\MISSION (UK) [non-remasters]\1990 – Carved In Sand (842 251-2)\06. The Mission – Grapes of Wrath.wav

Pre-gap length 0:00:01.00

Peak level 53.3 %
Extraction speed 3.5 X
Track quality 99.9 %
Test CRC 06C28FEC
Copy CRC 06C28FEC
Accurately ripped (confidence 132) [C413A703] (AR v2)
Copy OK

Track 7

Filename Z:\OdW\MISSION (UK) [non-remasters]\1990 – Carved In Sand (842 251-2)\07. The Mission – Belief.wav

Pre-gap length 0:00:01.00

Peak level 85.1 %
Extraction speed 4.7 X
Track quality 100.0 %
Test CRC AADA2B1C
Copy CRC AADA2B1C
Accurately ripped (confidence 131) [CE2FE369] (AR v2)
Copy OK

Track 8

Filename Z:\OdW\MISSION (UK) [non-remasters]\1990 – Carved In Sand (842 251-2)\08. The Mission – Paradise (Will Shine Like the Moon).wav

Pre-gap length 0:00:02.55

Peak level 91.8 %
Extraction speed 4.6 X
Track quality 100.0 %
Test CRC 56B89CCF
Copy CRC 56B89CCF
Accurately ripped (confidence 130) [3AD8CE46] (AR v2)
Copy OK

Track 9

Filename Z:\OdW\MISSION (UK) [non-remasters]\1990 – Carved In Sand (842 251-2)\09. The Mission – Hungry as the Hunter.wav

Pre-gap length 0:00:01.00

Peak level 85.7 %
Extraction speed 5.0 X
Track quality 100.0 %
Test CRC B401C1A9
Copy CRC B401C1A9
Accurately ripped (confidence 130) [00862BD8] (AR v2)
Copy OK

Track 10

Filename Z:\OdW\MISSION (UK) [non-remasters]\1990 – Carved In Sand (842 251-2)\10. The Mission – Lovely.wav

Pre-gap length 0:00:03.08

Peak level 21.1 %
Extraction speed 4.4 X
Track quality 100.0 %
Test CRC 6FEA28B9
Copy CRC 6FEA28B9
Accurately ripped (confidence 132) [3BB1ECA8] (AR v2)
Copy OK

All tracks accurately ripped

No errors occurred

End of status report

—- CUETools DB Plugin V2.1.6

[CTDB TOCID: JSLTkSvmwlhNW7vggpWpBHiMWT0-] found
Submit result: JSLTkSvmwlhNW7vggpWpBHiMWT0- has been confirmed
Track | CTDB Status
1 | (157/158) Accurately ripped
2 | (156/158) Accurately ripped
3 | (155/158) Accurately ripped
4 | (157/158) Accurately ripped
5 | (156/158) Accurately ripped
6 | (155/158) Accurately ripped
7 | (155/158) Accurately ripped
8 | (155/158) Accurately ripped
9 | (156/158) Accurately ripped
10 | (157/158) Accurately ripped

==== Log checksum 4BAE1B00812A9A62F2BA49B755E7AFC9DDD47551E9F04005D1A1463FE76A109B ====

REM GENRE “Gothic Rock”
REM DATE 1990
REM DISCID 820B130A
REM COMMENT “ExactAudioCopy v1.1”
PERFORMER “The Mission”
TITLE “Carved In Sand (842 251-2)”
FILE “01. The Mission Ð Amelia.wav” WAVE
TRACK 01 AUDIO
TITLE “Amelia”
PERFORMER “The Mission”
PREGAP 00:00:33
INDEX 01 00:00:00
FILE “02. The Mission Ð Into the Blue.wav” WAVE
TRACK 02 AUDIO
TITLE “Into the Blue”
PERFORMER “The Mission”
INDEX 01 00:00:00
TRACK 03 AUDIO
TITLE “Butterfly on a Wheel”
PERFORMER “The Mission”
INDEX 00 04:11:08
FILE “03. The Mission Ð Butterfly on a Wheel.wav” WAVE
INDEX 01 00:00:00
TRACK 04 AUDIO
TITLE “Sea of Love”
PERFORMER “The Mission”
INDEX 00 05:40:60
FILE “04. The Mission Ð Sea of Love.wav” WAVE
INDEX 01 00:00:00
FILE “05. The Mission Ð Deliverance.wav” WAVE
TRACK 05 AUDIO
TITLE “Deliverance”
PERFORMER “The Mission”
INDEX 01 00:00:00
TRACK 06 AUDIO
TITLE “Grapes of Wrath”
PERFORMER “The Mission”
INDEX 00 06:03:13
FILE “06. The Mission Ð Grapes of Wrath.wav” WAVE
INDEX 01 00:00:00
TRACK 07 AUDIO
TITLE “Belief”
PERFORMER “The Mission”
INDEX 00 04:18:70
FILE “07. The Mission Ð Belief.wav” WAVE
INDEX 01 00:00:00
TRACK 08 AUDIO
TITLE “Paradise (Will Shine Like the Moon)”
PERFORMER “The Mission”
INDEX 00 07:32:65
FILE “08. The Mission Ð Paradise (Will Shine Like the Moon).wav” WAVE
INDEX 01 00:00:00
TRACK 09 AUDIO
TITLE “Hungry as the Hunter”
PERFORMER “The Mission”
INDEX 00 03:51:10
FILE “09. The Mission Ð Hungry as the Hunter.wav” WAVE
INDEX 01 00:00:00
TRACK 10 AUDIO
TITLE “Lovely”
PERFORMER “The Mission”
INDEX 00 05:13:07
FILE “10. The Mission Ð Lovely.wav” WAVE
INDEX 01 00:00:00


Leave a Reply

Your email address will not be published. Required fields are marked *

This site uses Akismet to reduce spam. Learn how your comment data is processed.