The Mission – Blue




Artist: The Mission
Year: 1996
Genre: Rock
Notes: Discogs
Add. Notes:
Cover incl.: Yes
Encoder: FLAC
Bitrate: ~1000 kBit/s (44.1 kHz/16 Bit/s)
Log & Cue incl.: Yes
Size: 369,2 MB
Password: “slam” (without ” “)


All Downloads/Hosters are compatible

Download 1
Turbobit.net
KatFile.com
Rapidgator.net
NitroFlare.com
Download 2
Turbobit.net
KatFile.com
Rapidgator.net
NitroFlare.com

Tracklist:

1 - Coming Home - 2:47
2 - Get Back To You - 4:27
3 - Drown In Blue - 4:38
4 - Damaged - 4:50
5 - More Than This - 4:38
6 - That Tears Shall Drown The Wind - 5:22
7 - Black & Blue - 2:07
8 - Bang Bang - 4:18
9 - Alpha Man - 4:33
10 - Cannibal - 4:15
11 - Dying Room - 3:54
12 - Evermore And Again - 5:33

EAC-Log, CUE-Sheed & NFO:

Click to open spoiler
Exact Audio Copy V1.1 from 23. June 2015

EAC extraction logfile from 17. February 2017, 13:01

The Mission / Blue (484183 2)

Used drive : HL-DT-STDVDRAM GE20NU11 Adapter: 1 ID: 0

Read mode : Secure
Utilize accurate stream : Yes
Defeat audio cache : Yes
Make use of C2 pointers : No

Read offset correction : 667
Overread into Lead-In and Lead-Out : No
Fill up missing offset samples with silence : Yes
Delete leading and trailing silent blocks : No
Null samples used in CRC calculations : Yes
Used interface : Native Win32 interface for Win NT & 2000
Gap handling : Appended to previous track

Used output format : User Defined Encoder
Selected bitrate : 896 kBit/s
Quality : High
Add ID3 tag : No
Command line compressor : C:\Program Files\EAC 3\Exact Audio Copy\Flac\flac.exe
Additional command line options : -V -8 -T “Genre=%genre%” -T “Artist=%artist%” -T “Title=%title%” -T “Album=%albumtitle%” -T “Date=%year%” -T “Tracknumber=%tracknr%” -T “Comment=%comment%” %source%

TOC of the extracted CD

Track | Start | Length | Start sector | End sector
———————————————————
1 | 0:00.32 | 2:47.55 | 32 | 12611
2 | 2:48.12 | 4:27.20 | 12612 | 32656
3 | 7:15.32 | 4:38.10 | 32657 | 53516
4 | 11:53.42 | 4:50.48 | 53517 | 75314
5 | 16:44.15 | 4:38.72 | 75315 | 96236
6 | 21:23.12 | 5:22.73 | 96237 | 120459
7 | 26:46.10 | 2:07.20 | 120460 | 130004
8 | 28:53.30 | 4:18.55 | 130005 | 149409
9 | 33:12.10 | 4:33.10 | 149410 | 169894
10 | 37:45.20 | 4:15.47 | 169895 | 189066
11 | 42:00.67 | 3:54.00 | 189067 | 206616
12 | 45:54.67 | 5:33.65 | 206617 | 231656

Track 1

Filename Z:\OdW\MISSION (UK) [non-remasters]\1996 – Blue (484183 2)\01. The Mission – Coming Home.wav

Pre-gap length 0:00:02.32

Peak level 94.1 %
Extraction speed 4.0 X
Track quality 100.0 %
Test CRC 71BB77D7
Copy CRC 71BB77D7
Accurately ripped (confidence 20) [7DF7CEB2] (AR v2)
Copy OK

Track 2

Filename Z:\OdW\MISSION (UK) [non-remasters]\1996 – Blue (484183 2)\02. The Mission – Get Back To You.wav

Pre-gap length 0:00:00.02

Peak level 95.3 %
Extraction speed 4.0 X
Track quality 99.9 %
Test CRC 5E283C5F
Copy CRC 5E283C5F
Accurately ripped (confidence 20) [54582437] (AR v2)
Copy OK

Track 3

Filename Z:\OdW\MISSION (UK) [non-remasters]\1996 – Blue (484183 2)\03. The Mission – Drown In Blue.wav

Pre-gap length 0:00:02.15

Peak level 98.3 %
Extraction speed 5.2 X
Track quality 100.0 %
Test CRC 7B7E5D10
Copy CRC 7B7E5D10
Accurately ripped (confidence 20) [50F765C5] (AR v2)
Copy OK

Track 4

Filename Z:\OdW\MISSION (UK) [non-remasters]\1996 – Blue (484183 2)\04. The Mission – Damaged.wav

Pre-gap length 0:00:00.02

Peak level 94.5 %
Extraction speed 5.7 X
Track quality 100.0 %
Test CRC D97DEF26
Copy CRC D97DEF26
Accurately ripped (confidence 20) [4024CF75] (AR v2)
Copy OK

Track 5

Filename Z:\OdW\MISSION (UK) [non-remasters]\1996 – Blue (484183 2)\05. The Mission – More Than This.wav

Pre-gap length 0:00:00.58

Peak level 96.9 %
Extraction speed 6.1 X
Track quality 100.0 %
Test CRC 3813D319
Copy CRC 3813D319
Accurately ripped (confidence 20) [1DB50B42] (AR v2)
Copy OK

Track 6

Filename Z:\OdW\MISSION (UK) [non-remasters]\1996 – Blue (484183 2)\06. The Mission – That Tears Shall Drown The Wind.wav

Pre-gap length 0:00:00.02

Peak level 100.0 %
Extraction speed 6.4 X
Track quality 100.0 %
Test CRC 5BB37272
Copy CRC 5BB37272
Accurately ripped (confidence 20) [B0052020] (AR v2)
Copy OK

Track 7

Filename Z:\OdW\MISSION (UK) [non-remasters]\1996 – Blue (484183 2)\07. The Mission – Black & Blue.wav

Pre-gap length 0:00:01.25

Peak level 94.0 %
Extraction speed 5.8 X
Track quality 100.0 %
Test CRC 23A8CCE8
Copy CRC 23A8CCE8
Accurately ripped (confidence 20) [1209F4D8] (AR v2)
Copy OK

Track 8

Filename Z:\OdW\MISSION (UK) [non-remasters]\1996 – Blue (484183 2)\08. The Mission – Bang Bang.wav

Pre-gap length 0:00:00.03

Peak level 96.6 %
Extraction speed 6.8 X
Track quality 100.0 %
Test CRC 5F499811
Copy CRC 5F499811
Accurately ripped (confidence 20) [7A5EEBBC] (AR v2)
Copy OK

Track 9

Filename Z:\OdW\MISSION (UK) [non-remasters]\1996 – Blue (484183 2)\09. The Mission – Alpha Man.wav

Pre-gap length 0:00:00.03

Peak level 100.0 %
Extraction speed 6.9 X
Track quality 100.0 %
Test CRC CF3122C8
Copy CRC CF3122C8
Accurately ripped (confidence 20) [066AD9E5] (AR v2)
Copy OK

Track 10

Filename Z:\OdW\MISSION (UK) [non-remasters]\1996 – Blue (484183 2)\10. The Mission – Cannibal.wav

Pre-gap length 0:00:00.53

Peak level 94.8 %
Extraction speed 6.0 X
Track quality 99.9 %
Test CRC 490FC357
Copy CRC 490FC357
Accurately ripped (confidence 20) [50118DD5] (AR v2)
Copy OK

Track 11

Filename Z:\OdW\MISSION (UK) [non-remasters]\1996 – Blue (484183 2)\11. The Mission – Dying Room.wav

Pre-gap length 0:00:00.02

Peak level 97.2 %
Extraction speed 7.1 X
Track quality 100.0 %
Test CRC 01D4771D
Copy CRC 01D4771D
Accurately ripped (confidence 20) [3CCE18B5] (AR v2)
Copy OK

Track 12

Filename Z:\OdW\MISSION (UK) [non-remasters]\1996 – Blue (484183 2)\12. The Mission – Evermore And Again.wav

Pre-gap length 0:00:00.02

Peak level 95.0 %
Extraction speed 8.0 X
Track quality 100.0 %
Test CRC BF4256A6
Copy CRC BF4256A6
Accurately ripped (confidence 20) [168A84ED] (AR v2)
Copy OK

All tracks accurately ripped

No errors occurred

End of status report

—- CUETools DB Plugin V2.1.6

[CTDB TOCID: jMxU5SOXuz38JGxz09ly5IcoxCo-] found
Submit result: jMxU5SOXuz38JGxz09ly5IcoxCo- has been confirmed
Track | CTDB Status
1 | (33/33) Accurately ripped
2 | (33/33) Accurately ripped
3 | (33/33) Accurately ripped
4 | (33/33) Accurately ripped
5 | (33/33) Accurately ripped
6 | (33/33) Accurately ripped
7 | (33/33) Accurately ripped
8 | (33/33) Accurately ripped
9 | (32/33) Accurately ripped
10 | (33/33) Accurately ripped
11 | (33/33) Accurately ripped
12 | (33/33) Accurately ripped

==== Log checksum CBD21803A91B3BD0AFD45A3002F975F8ECD8CFE3B87CBC32191D22DE83B754DB ====

REM GENRE “Gothic Rock”
REM DATE 1996
REM DISCID A20C100C
REM COMMENT “ExactAudioCopy v1.1”
PERFORMER “The Mission”
TITLE “Blue (484183 2)”
FILE “01. The Mission Ð Coming Home.wav” WAVE
TRACK 01 AUDIO
TITLE “Coming Home”
PERFORMER “The Mission”
PREGAP 00:00:32
INDEX 01 00:00:00
TRACK 02 AUDIO
TITLE “Get Back To You”
PERFORMER “The Mission”
INDEX 00 02:47:53
FILE “02. The Mission Ð Get Back To You.wav” WAVE
INDEX 01 00:00:00
TRACK 03 AUDIO
TITLE “Drown In Blue”
PERFORMER “The Mission”
INDEX 00 04:25:05
FILE “03. The Mission Ð Drown In Blue.wav” WAVE
INDEX 01 00:00:00
TRACK 04 AUDIO
TITLE “Damaged”
PERFORMER “The Mission”
INDEX 00 04:38:08
FILE “04. The Mission Ð Damaged.wav” WAVE
INDEX 01 00:00:00
TRACK 05 AUDIO
TITLE “More Than This”
PERFORMER “The Mission”
INDEX 00 04:49:65
FILE “05. The Mission Ð More Than This.wav” WAVE
INDEX 01 00:00:00
TRACK 06 AUDIO
TITLE “That Tears Shall Drown The Wind”
PERFORMER “The Mission”
INDEX 00 04:38:70
FILE “06. The Mission Ð That Tears Shall Drown The Wind.wav” WAVE
INDEX 01 00:00:00
TRACK 07 AUDIO
TITLE “Black & Blue”
PERFORMER “The Mission”
INDEX 00 05:21:48
FILE “07. The Mission Ð Black & Blue.wav” WAVE
INDEX 01 00:00:00
TRACK 08 AUDIO
TITLE “Bang Bang”
PERFORMER “The Mission”
INDEX 00 02:07:17
FILE “08. The Mission Ð Bang Bang.wav” WAVE
INDEX 01 00:00:00
TRACK 09 AUDIO
TITLE “Alpha Man”
PERFORMER “The Mission”
INDEX 00 04:18:52
FILE “09. The Mission Ð Alpha Man.wav” WAVE
INDEX 01 00:00:00
TRACK 10 AUDIO
TITLE “Cannibal”
PERFORMER “The Mission”
INDEX 00 04:32:32
FILE “10. The Mission Ð Cannibal.wav” WAVE
INDEX 01 00:00:00
TRACK 11 AUDIO
TITLE “Dying Room”
PERFORMER “The Mission”
INDEX 00 04:15:45
FILE “11. The Mission Ð Dying Room.wav” WAVE
INDEX 01 00:00:00
TRACK 12 AUDIO
TITLE “Evermore And Again”
PERFORMER “The Mission”
INDEX 00 03:53:73
FILE “12. The Mission Ð Evermore And Again.wav” WAVE
INDEX 01 00:00:00


Leave a Reply

Your email address will not be published. Required fields are marked *

This site uses Akismet to reduce spam. Learn how your comment data is processed.