The Mission – Aura




[Total: 0    Average: 0/5]

Artist: The Mission
Year: 2001
Genre: Rock
Notes: Discogs
Add. Notes:
Cover incl.: Yes
Encoder: FLAC
Bitrate: ~1000 kBit/s (44.1 kHz/16 Bit/s)
Log & Cue incl.: Yes
Size: 538 MB
Password: “slam” (without ” “)


All Downloads/Hosters are compatible

Download 1
KatFile.com
Rapidgator.net
NitroFlare.com
Share-online.biz
Download 2
KatFile.com
Rapidgator.net
NitroFlare.com
Share-online.biz

Tracklist:

1 - Evangeline - 3:57
2 - Shine Like The Stars - 4:35
3 - (Slave To) Lust - 5:39
4 - Mesmerised - 5:20
5 - Lay Your Hands On Me - 5:33
6 - Dragonfly - 5:43
7 - Happy - 3:05
8 - To Die By Your Hand - 1:18
9 - Trophy / It Never Rains... - 5:45
10 - The Light That Pours From You - 
5:28
11 - Burlesque - 4:57
12 - Cocoon - 7:34
13a - In Denial - 6:05
13b - Untitled - 1:01
13c - Frozen - 1:59

EAC-Log, CUE-Sheed & NFO:

Click to open spoiler
Exact Audio Copy V1.1 from 23. June 2015

EAC extraction logfile from 17. February 2017, 1:36

The Mission / Aura (SPV 62762 CD)

Used drive : HL-DT-STDVDRAM GE20NU11 Adapter: 1 ID: 0

Read mode : Secure
Utilize accurate stream : Yes
Defeat audio cache : Yes
Make use of C2 pointers : No

Read offset correction : 667
Overread into Lead-In and Lead-Out : No
Fill up missing offset samples with silence : Yes
Delete leading and trailing silent blocks : No
Null samples used in CRC calculations : Yes
Used interface : Native Win32 interface for Win NT & 2000
Gap handling : Appended to previous track

Used output format : User Defined Encoder
Selected bitrate : 896 kBit/s
Quality : High
Add ID3 tag : No
Command line compressor : C:\Program Files\EAC 3\Exact Audio Copy\Flac\flac.exe
Additional command line options : -V -8 -T “Genre=%genre%” -T “Artist=%artist%” -T “Title=%title%” -T “Album=%albumtitle%” -T “Date=%year%” -T “Tracknumber=%tracknr%” -T “Comment=%comment%” %source%

TOC of the extracted CD

Track | Start | Length | Start sector | End sector
———————————————————
1 | 0:00.00 | 3:57.11 | 0 | 17785
2 | 3:57.11 | 4:34.71 | 17786 | 38406
3 | 8:32.07 | 5:41.74 | 38407 | 64055
4 | 14:14.06 | 5:14.13 | 64056 | 87618
5 | 19:28.19 | 5:36.31 | 87619 | 112849
6 | 25:04.50 | 5:41.31 | 112850 | 138455
7 | 30:46.06 | 3:07.16 | 138456 | 152496
8 | 33:53.22 | 1:18.07 | 152497 | 158353
9 | 35:11.29 | 5:42.20 | 158354 | 184023
10 | 40:53.49 | 5:25.51 | 184024 | 208449
11 | 46:19.25 | 4:56.24 | 208450 | 230673
12 | 51:15.49 | 7:33.44 | 230674 | 264692
13 | 58:49.18 | 9:05.47 | 264693 | 305614

Track 1

Filename Z:\OdW\MISSION (UK) [non-remasters]\2001 – Aura (SPV 62762 CD)\01. The Mission – Evangeline.wav

Pre-gap length 0:00:02.00

Peak level 99.7 %
Extraction speed 4.3 X
Track quality 100.0 %
Test CRC FC1A3529
Copy CRC FC1A3529
Accurately ripped (confidence 32) [65ED04D9] (AR v2)
Copy OK

Track 2

Filename Z:\OdW\MISSION (UK) [non-remasters]\2001 – Aura (SPV 62762 CD)\02. The Mission – Shine Like The Stars.wav

Peak level 99.7 %
Extraction speed 4.8 X
Track quality 100.0 %
Test CRC 449CE7FE
Copy CRC 449CE7FE
Accurately ripped (confidence 31) [386FABDF] (AR v2)
Copy OK

Track 3

Filename Z:\OdW\MISSION (UK) [non-remasters]\2001 – Aura (SPV 62762 CD)\03. The Mission – (Slave To) Lust.wav

Peak level 99.7 %
Extraction speed 5.4 X
Track quality 100.0 %
Test CRC B3A617B4
Copy CRC B3A617B4
Accurately ripped (confidence 32) [94757C32] (AR v2)
Copy OK

Track 4

Filename Z:\OdW\MISSION (UK) [non-remasters]\2001 – Aura (SPV 62762 CD)\04. The Mission – Mesmerised.wav

Pre-gap length 0:00:02.74

Peak level 99.7 %
Extraction speed 5.8 X
Track quality 100.0 %
Test CRC A485A0D7
Copy CRC A485A0D7
Accurately ripped (confidence 33) [7973C7D7] (AR v2)
Copy OK

Track 5

Filename Z:\OdW\MISSION (UK) [non-remasters]\2001 – Aura (SPV 62762 CD)\05. The Mission – Lay Your Hands On Me.wav

Peak level 99.7 %
Extraction speed 6.2 X
Track quality 100.0 %
Test CRC 1BE7C6D8
Copy CRC 1BE7C6D8
Accurately ripped (confidence 33) [22FA2AEF] (AR v2)
Copy OK

Track 6

Filename Z:\OdW\MISSION (UK) [non-remasters]\2001 – Aura (SPV 62762 CD)\06. The Mission – Dragonfly.wav

Pre-gap length 0:00:02.74

Peak level 99.7 %
Extraction speed 6.3 X
Track quality 100.0 %
Test CRC FFE86250
Copy CRC FFE86250
Accurately ripped (confidence 33) [9E3A14B7] (AR v2)
Copy OK

Track 7

Filename Z:\OdW\MISSION (UK) [non-remasters]\2001 – Aura (SPV 62762 CD)\07. The Mission – Happy.wav

Peak level 99.7 %
Extraction speed 4.9 X
Track quality 99.9 %
Test CRC 0BBF387D
Copy CRC 0BBF387D
Accurately ripped (confidence 33) [35F733AE] (AR v2)
Copy OK

Track 8

Filename Z:\OdW\MISSION (UK) [non-remasters]\2001 – Aura (SPV 62762 CD)\08. The Mission – To Die By Your Hand.wav

Pre-gap length 0:00:02.74

Peak level 99.7 %
Extraction speed 5.2 X
Track quality 100.0 %
Test CRC 2B85A8E6
Copy CRC 2B85A8E6
Accurately ripped (confidence 33) [19A19C99] (AR v2)
Copy OK

Track 9

Filename Z:\OdW\MISSION (UK) [non-remasters]\2001 – Aura (SPV 62762 CD)\09. The Mission – Trophy , It Never Rains….wav

Peak level 99.7 %
Extraction speed 6.1 X
Track quality 99.9 %
Test CRC 60030D1C
Copy CRC 60030D1C
Accurately ripped (confidence 33) [E8AE594B] (AR v2)
Copy OK

Track 10

Filename Z:\OdW\MISSION (UK) [non-remasters]\2001 – Aura (SPV 62762 CD)\10. The Mission – The Light That Pours From You.wav

Peak level 99.7 %
Extraction speed 6.3 X
Track quality 99.9 %
Test CRC CF8EBDB7
Copy CRC CF8EBDB7
Accurately ripped (confidence 33) [DA6194A5] (AR v2)
Copy OK

Track 11

Filename Z:\OdW\MISSION (UK) [non-remasters]\2001 – Aura (SPV 62762 CD)\11. The Mission – Burlesque.wav

Peak level 99.7 %
Extraction speed 7.4 X
Track quality 100.0 %
Test CRC 05F67B9E
Copy CRC 05F67B9E
Accurately ripped (confidence 33) [88BB3446] (AR v2)
Copy OK

Track 12

Filename Z:\OdW\MISSION (UK) [non-remasters]\2001 – Aura (SPV 62762 CD)\12. The Mission – Cocoon.wav

Peak level 99.7 %
Extraction speed 8.1 X
Track quality 100.0 %
Test CRC AD4EA224
Copy CRC AD4EA224
Accurately ripped (confidence 33) [729D5A53] (AR v2)
Copy OK

Track 13

Filename Z:\OdW\MISSION (UK) [non-remasters]\2001 – Aura (SPV 62762 CD)\13. The Mission – In Denial.wav

Peak level 99.7 %
Extraction speed 8.7 X
Track quality 100.0 %
Test CRC 237F2508
Copy CRC 237F2508
Accurately ripped (confidence 32) [554A9C58] (AR v2)
Copy OK

All tracks accurately ripped

No errors occurred

End of status report

—- CUETools DB Plugin V2.1.6

[CTDB TOCID: W6yBow7FpFz50D6Z1fmN2uMem2o-] found
Submit result: W6yBow7FpFz50D6Z1fmN2uMem2o- has been confirmed
Track | CTDB Status
1 | (51/52) Accurately ripped
2 | (51/52) Accurately ripped
3 | (52/52) Accurately ripped
4 | (52/52) Accurately ripped
5 | (52/52) Accurately ripped
6 | (51/52) Accurately ripped
7 | (52/52) Accurately ripped
8 | (52/52) Accurately ripped
9 | (51/52) Accurately ripped
10 | (51/52) Accurately ripped
11 | (51/52) Accurately ripped
12 | (51/52) Accurately ripped
13 | (51/52) Accurately ripped

==== Log checksum 9E2487CD83BDE059E24317D64D1BC2D02F7DD04B88B758500DA3A0B2476B1898 ====

REM GENRE “Gothic Rock”
REM DATE 2001
REM DISCID A70FEA0D
REM COMMENT “ExactAudioCopy v1.1”
PERFORMER “The Mission”
TITLE “Aura (SPV 62762 CD)”
FILE “01. The Mission Ð Evangeline.wav” WAVE
TRACK 01 AUDIO
TITLE “Evangeline”
PERFORMER “The Mission”
INDEX 01 00:00:00
FILE “02. The Mission Ð Shine Like The Stars.wav” WAVE
TRACK 02 AUDIO
TITLE “Shine Like The Stars”
PERFORMER “The Mission”
INDEX 01 00:00:00
FILE “03. The Mission Ð (Slave To) Lust.wav” WAVE
TRACK 03 AUDIO
TITLE “(Slave To) Lust”
PERFORMER “The Mission”
INDEX 01 00:00:00
TRACK 04 AUDIO
TITLE “Mesmerised”
PERFORMER “The Mission”
INDEX 00 05:39:00
FILE “04. The Mission Ð Mesmerised.wav” WAVE
INDEX 01 00:00:00
FILE “05. The Mission Ð Lay Your Hands On Me.wav” WAVE
TRACK 05 AUDIO
TITLE “Lay Your Hands On Me”
PERFORMER “The Mission”
INDEX 01 00:00:00
TRACK 06 AUDIO
TITLE “Dragonfly”
PERFORMER “The Mission”
INDEX 00 05:33:32
FILE “06. The Mission Ð Dragonfly.wav” WAVE
INDEX 01 00:00:00
FILE “07. The Mission Ð Happy.wav” WAVE
TRACK 07 AUDIO
TITLE “Happy”
PERFORMER “The Mission”
INDEX 01 00:00:00
TRACK 08 AUDIO
TITLE “To Die By Your Hand”
PERFORMER “The Mission”
INDEX 00 03:04:17
FILE “08. The Mission Ð To Die By Your Hand.wav” WAVE
INDEX 01 00:00:00
FILE “09. The Mission Ð Trophy , It Never Rains….wav” WAVE
TRACK 09 AUDIO
TITLE “Trophy / It Never Rains…”
PERFORMER “The Mission”
INDEX 01 00:00:00
FILE “10. The Mission Ð The Light That Pours From You.wav” WAVE
TRACK 10 AUDIO
TITLE “The Light That Pours From You”
PERFORMER “The Mission”
INDEX 01 00:00:00
FILE “11. The Mission Ð Burlesque.wav” WAVE
TRACK 11 AUDIO
TITLE “Burlesque”
PERFORMER “The Mission”
INDEX 01 00:00:00
FILE “12. The Mission Ð Cocoon.wav” WAVE
TRACK 12 AUDIO
TITLE “Cocoon”
PERFORMER “The Mission”
INDEX 01 00:00:00
FILE “13. The Mission Ð In Denial.wav” WAVE
TRACK 13 AUDIO
TITLE “In Denial”
PERFORMER “The Mission”
INDEX 01 00:00:00


Spread the Download

Leave a Reply

Your email address will not be published. Required fields are marked *

Enter the text from the image below
 

This site uses Akismet to reduce spam. Learn how your comment data is processed.