The Mission – Another Fall From Grace (Limited Edition)




Artist: The Mission
Year: 2016
Genre: Rock
Notes: Discogs
Add. Notes: Limited Edition
Cover incl.: Yes
Encoder: FLAC
Bitrate: ~900 kBit/s (44.1 kHz/16 Bit/s)
Log & Cue incl.: Yes
Size: 919,41 MB
Password: “slam” (without ” “)


All Downloads/Hosters are compatible

Download 1
Turbobit.net
KatFile.com
Rapidgator.net
ddl.to
Download 2
Turbobit.net
KatFile.com
Rapidgator.net
ddl.to

Tracklist:

Another Fall From Grace
CD1-1 - Another Fall From Grace - 6:20
CD1-2 - Met-Amor-Phosis - 4:16
CD1-3 - Within The Deepest Darkness (Fearful) - 5:47
CD1-4 - Blood On The Road - 4:56
CD1-5 - Can’t See The Ocean For The Rain - 5:12
CD1-6 - Tyranny Of Secrets - 4:00
CD1-7 - Never’s Longer Than Forever - 5:22
CD1-8 - Bullets & Bayonets - 6:01
CD1-9 - Valaam - 1:16
CD1-10 - Jade - 6:13
CD1-11 - Only You & You Alone - 7:20
CD1-12 - Phantom Pain - 7:25
Another Fall From Grace (Instrumental)
CD2-1 - Another Fall From Grace - 6:20
CD2-2 - Met-Amor-Phosis - 4:15
CD2-3 - Within The Deepest Darkness (Fearful) - 5:47
CD2-4 - Blood On The Road - 4:56
CD2-5 - Can’t See The Ocean For The Rain - 5:12
CD2-6 - Tyranny Of Secrets - 4:00
CD2-7 - Never’s Longer Than Forever - 5:22
CD2-8 - Bullets & Bayonets - 6:01
CD2-9 - Valaam - 1:24
CD2-10 - Jade - 6:13
CD2-11 - Only You & You Alone - 7:28
CD2-12 - Phantom Pain - 7:30
CD2-13 - Met-Amor-Phosis (Black Star Remix) - 6:57

EAC-Log, CUE-Sheed & NFO:

Click to open spoiler
Exact Audio Copy V1.1 from 23. June 2015

EAC extraction logfile from 16. February 2017, 22:50

The Mission / Another Fall From Grace (EWSR021) CD 2

Used drive : HL-DT-STDVDRAM GE20NU11 Adapter: 1 ID: 0

Read mode : Secure
Utilize accurate stream : Yes
Defeat audio cache : Yes
Make use of C2 pointers : No

Read offset correction : 667
Overread into Lead-In and Lead-Out : No
Fill up missing offset samples with silence : Yes
Delete leading and trailing silent blocks : No
Null samples used in CRC calculations : Yes
Used interface : Native Win32 interface for Win NT & 2000
Gap handling : Appended to previous track

Used output format : User Defined Encoder
Selected bitrate : 896 kBit/s
Quality : High
Add ID3 tag : No
Command line compressor : C:\Program Files\EAC 3\Exact Audio Copy\Flac\flac.exe
Additional command line options : -V -8 -T “Genre=%genre%” -T “Artist=%artist%” -T “Title=%title%” -T “Album=%albumtitle%” -T “Date=%year%” -T “Tracknumber=%tracknr%” -T “Comment=%comment%” %source%

TOC of the extracted CD

Track | Start | Length | Start sector | End sector
———————————————————
1 | 0:00.00 | 6:20.34 | 0 | 28533
2 | 6:20.34 | 4:15.70 | 28534 | 47728
3 | 10:36.29 | 5:47.10 | 47729 | 73763
4 | 16:23.39 | 4:56.41 | 73764 | 96004
5 | 21:20.05 | 5:12.69 | 96005 | 119473
6 | 26:32.74 | 4:00.30 | 119474 | 137503
7 | 30:33.29 | 5:22.41 | 137504 | 161694
8 | 35:55.70 | 6:01.44 | 161695 | 188813
9 | 41:57.39 | 1:24.22 | 188814 | 195135
10 | 43:21.61 | 6:13.19 | 195136 | 223129
11 | 49:35.05 | 7:28.08 | 223130 | 256737
12 | 57:03.13 | 7:30.20 | 256738 | 290507
13 | 64:33.33 | 6:57.71 | 290508 | 321853

Track 1

Filename Z:\OdW\MISSION (UK) [non-remasters]\2016 – Another Fall From Grace (EWSR021)\CD 2\01. The Mission – Another Fall From Grace (Instrumental).wav

Pre-gap length 0:00:02.00

Peak level 99.4 %
Extraction speed 2.6 X
Track quality 99.9 %
Test CRC 2D22CC51
Copy CRC 2D22CC51
Accurately ripped (confidence 6) [3C2FC709] (AR v2)
Copy OK

Track 2

Filename Z:\OdW\MISSION (UK) [non-remasters]\2016 – Another Fall From Grace (EWSR021)\CD 2\02. The Mission – Met-Amor-Phosis (Instrumental).wav

Peak level 99.4 %
Extraction speed 2.7 X
Track quality 99.9 %
Test CRC F1A44954
Copy CRC F1A44954
Accurately ripped (confidence 6) [4A38CD2D] (AR v2)
Copy OK

Track 3

Filename Z:\OdW\MISSION (UK) [non-remasters]\2016 – Another Fall From Grace (EWSR021)\CD 2\03. The Mission – WIthin The Deepest Darkness (Fearful) (Instrumental).wav

Peak level 99.4 %
Extraction speed 3.3 X
Track quality 100.0 %
Test CRC AA9F8098
Copy CRC AA9F8098
Accurately ripped (confidence 6) [FBC8EAD2] (AR v2)
Copy OK

Track 4

Filename Z:\OdW\MISSION (UK) [non-remasters]\2016 – Another Fall From Grace (EWSR021)\CD 2\04. The Mission – Blood On The Road (Instrumental).wav

Peak level 99.4 %
Extraction speed 3.7 X
Track quality 100.0 %
Test CRC FFE7FD21
Copy CRC FFE7FD21
Accurately ripped (confidence 6) [967548F2] (AR v2)
Copy OK

Track 5

Filename Z:\OdW\MISSION (UK) [non-remasters]\2016 – Another Fall From Grace (EWSR021)\CD 2\05. The Mission – Can’t See The Ocean For The Rain (Instrumental).wav

Peak level 99.4 %
Extraction speed 3.9 X
Track quality 100.0 %
Test CRC 2F44754F
Copy CRC 2F44754F
Accurately ripped (confidence 6) [84C26C67] (AR v2)
Copy OK

Track 6

Filename Z:\OdW\MISSION (UK) [non-remasters]\2016 – Another Fall From Grace (EWSR021)\CD 2\06. The Mission – Tyranny Of Secrets (Instrumental).wav

Peak level 99.4 %
Extraction speed 3.9 X
Track quality 100.0 %
Test CRC 3750C487
Copy CRC 3750C487
Accurately ripped (confidence 6) [C12EF8F8] (AR v2)
Copy OK

Track 7

Filename Z:\OdW\MISSION (UK) [non-remasters]\2016 – Another Fall From Grace (EWSR021)\CD 2\07. The Mission – Never’s Longer Than Forever (Instrumental).wav

Peak level 99.4 %
Extraction speed 4.3 X
Track quality 100.0 %
Test CRC 2C2D0F31
Copy CRC 2C2D0F31
Accurately ripped (confidence 6) [1F0C0344] (AR v2)
Copy OK

Track 8

Filename Z:\OdW\MISSION (UK) [non-remasters]\2016 – Another Fall From Grace (EWSR021)\CD 2\08. The Mission – Bullets & Bayonets (Instrumental).wav

Peak level 99.4 %
Extraction speed 4.6 X
Track quality 100.0 %
Test CRC 4B5874FD
Copy CRC 4B5874FD
Accurately ripped (confidence 6) [DEEC2B18] (AR v2)
Copy OK

Track 9

Filename Z:\OdW\MISSION (UK) [non-remasters]\2016 – Another Fall From Grace (EWSR021)\CD 2\09. The Mission – Valaam (Instrumental).wav

Peak level 49.4 %
Extraction speed 2.5 X
Track quality 99.8 %
Test CRC 1CA3075E
Copy CRC 1CA3075E
Accurately ripped (confidence 6) [01E625D7] (AR v2)
Copy OK

Track 10

Filename Z:\OdW\MISSION (UK) [non-remasters]\2016 – Another Fall From Grace (EWSR021)\CD 2\10. The Mission – Jade (Instrumental).wav

Peak level 99.4 %
Extraction speed 4.7 X
Track quality 100.0 %
Test CRC A9D4DD80
Copy CRC A9D4DD80
Accurately ripped (confidence 6) [D47149AC] (AR v2)
Copy OK

Track 11

Filename Z:\OdW\MISSION (UK) [non-remasters]\2016 – Another Fall From Grace (EWSR021)\CD 2\11. The Mission – Only You & You Alone (Instrumental).wav

Peak level 99.4 %
Extraction speed 5.1 X
Track quality 100.0 %
Test CRC 12E548CA
Copy CRC 12E548CA
Accurately ripped (confidence 6) [6E1AA9BF] (AR v2)
Copy OK

Track 12

Filename Z:\OdW\MISSION (UK) [non-remasters]\2016 – Another Fall From Grace (EWSR021)\CD 2\12. The Mission – Phantom Pain (Instrumental).wav

Peak level 99.4 %
Extraction speed 5.4 X
Track quality 100.0 %
Test CRC A09B0436
Copy CRC A09B0436
Accurately ripped (confidence 6) [9C7E36CC] (AR v2)
Copy OK

Track 13

Filename Z:\OdW\MISSION (UK) [non-remasters]\2016 – Another Fall From Grace (EWSR021)\CD 2\13. The Mission – Met-Amor-Phosis (Black Star Remix).wav

Peak level 99.2 %
Extraction speed 5.6 X
Track quality 100.0 %
Test CRC 5DD8F169
Copy CRC 5DD8F169
Accurately ripped (confidence 6) [3A670627] (AR v2)
Copy OK

All tracks accurately ripped

No errors occurred

End of status report

—- CUETools DB Plugin V2.1.6

[CTDB TOCID: 4XbEXOL7Psqko0XUCMvXYAPHXU0-] found
Submit result: 4XbEXOL7Psqko0XUCMvXYAPHXU0- has been confirmed
Track | CTDB Status
1 | (36/37) Accurately ripped
2 | (37/37) Accurately ripped
3 | (37/37) Accurately ripped
4 | (37/37) Accurately ripped
5 | (37/37) Accurately ripped
6 | (37/37) Accurately ripped
7 | (36/37) Accurately ripped
8 | (36/37) Accurately ripped
9 | (35/37) Accurately ripped
10 | (36/37) Accurately ripped
11 | (36/37) Accurately ripped
12 | (36/37) Accurately ripped
13 | (37/37) Accurately ripped

==== Log checksum 2EB2F5EB8CCE7E59EF177BBD6AF8ED0750DA6BC0F04A66C2757C20C683CD74F1 ====

Exact Audio Copy V1.1 from 23. June 2015

EAC extraction logfile from 16. February 2017, 21:56

The Mission / Another Fall From Grace (EWSR021) CD 1

Used drive : HL-DT-STDVDRAM GE20NU11 Adapter: 1 ID: 0

Read mode : Secure
Utilize accurate stream : Yes
Defeat audio cache : Yes
Make use of C2 pointers : No

Read offset correction : 667
Overread into Lead-In and Lead-Out : No
Fill up missing offset samples with silence : Yes
Delete leading and trailing silent blocks : No
Null samples used in CRC calculations : Yes
Used interface : Native Win32 interface for Win NT & 2000
Gap handling : Appended to previous track

Used output format : User Defined Encoder
Selected bitrate : 896 kBit/s
Quality : High
Add ID3 tag : No
Command line compressor : C:\Program Files\EAC 3\Exact Audio Copy\Flac\flac.exe
Additional command line options : -V -8 -T “Genre=%genre%” -T “Artist=%artist%” -T “Title=%title%” -T “Album=%albumtitle%” -T “Date=%year%” -T “Tracknumber=%tracknr%” -T “Comment=%comment%” %source%

TOC of the extracted CD

Track | Start | Length | Start sector | End sector
———————————————————
1 | 0:00.00 | 6:20.28 | 0 | 28527
2 | 6:20.28 | 4:16.01 | 28528 | 47728
3 | 10:36.29 | 5:47.25 | 47729 | 73778
4 | 16:23.54 | 4:56.24 | 73779 | 96002
5 | 21:20.03 | 5:12.71 | 96003 | 119473
6 | 26:32.74 | 4:00.17 | 119474 | 137490
7 | 30:33.16 | 5:22.54 | 137491 | 161694
8 | 35:55.70 | 6:01.74 | 161695 | 188843
9 | 41:57.69 | 1:16.24 | 188844 | 194567
10 | 43:14.18 | 6:13.37 | 194568 | 222579
11 | 49:27.55 | 7:20.34 | 222580 | 255613
12 | 56:48.14 | 7:25.57 | 255614 | 289045

Track 1

Filename Z:\OdW\MISSION (UK) [non-remasters]\2016 – Another Fall From Grace (EWSR021)\CD 1\01. The Mission – Another Fall from Grace.wav

Pre-gap length 0:00:02.00

Peak level 94.9 %
Extraction speed 4.6 X
Track quality 100.0 %
Test CRC B7E3C992
Copy CRC B7E3C992
Accurately ripped (confidence 11) [DCD9DA9D] (AR v2)
Copy OK

Track 2

Filename Z:\OdW\MISSION (UK) [non-remasters]\2016 – Another Fall From Grace (EWSR021)\CD 1\02. The Mission – Met-Amor-Phosis.wav

Peak level 99.4 %
Extraction speed 5.1 X
Track quality 100.0 %
Test CRC B837BA1F
Copy CRC B837BA1F
Accurately ripped (confidence 11) [45157370] (AR v2)
Copy OK

Track 3

Filename Z:\OdW\MISSION (UK) [non-remasters]\2016 – Another Fall From Grace (EWSR021)\CD 1\03. The Mission – Within the Deepest Darkness (Fearful).wav

Peak level 99.4 %
Extraction speed 5.7 X
Track quality 100.0 %
Test CRC C9E8094A
Copy CRC C9E8094A
Accurately ripped (confidence 10) [D8E8F28F] (AR v2)
Copy OK

Track 4

Filename Z:\OdW\MISSION (UK) [non-remasters]\2016 – Another Fall From Grace (EWSR021)\CD 1\04. The Mission – Blood on the Road.wav

Peak level 99.4 %
Extraction speed 5.9 X
Track quality 100.0 %
Test CRC 4DB3478B
Copy CRC 4DB3478B
Accurately ripped (confidence 10) [DDA79E5A] (AR v2)
Copy OK

Track 5

Filename Z:\OdW\MISSION (UK) [non-remasters]\2016 – Another Fall From Grace (EWSR021)\CD 1\05. The Mission – Can’t See the Ocean for the Rain.wav

Peak level 99.4 %
Extraction speed 6.3 X
Track quality 100.0 %
Test CRC 4B59437E
Copy CRC 4B59437E
Accurately ripped (confidence 10) [C56FADD9] (AR v2)
Copy OK

Track 6

Filename Z:\OdW\MISSION (UK) [non-remasters]\2016 – Another Fall From Grace (EWSR021)\CD 1\06. The Mission – Tyranny of Secrets.wav

Peak level 99.4 %
Extraction speed 6.3 X
Track quality 100.0 %
Test CRC F1092855
Copy CRC F1092855
Accurately ripped (confidence 10) [36ABA154] (AR v2)
Copy OK

Track 7

Filename Z:\OdW\MISSION (UK) [non-remasters]\2016 – Another Fall From Grace (EWSR021)\CD 1\07. The Mission – Never’s Longer Than Forever.wav

Peak level 99.4 %
Extraction speed 6.1 X
Track quality 99.9 %
Test CRC 1DB13315
Copy CRC 1DB13315
Accurately ripped (confidence 10) [2C63A0A1] (AR v2)
Copy OK

Track 8

Filename Z:\OdW\MISSION (UK) [non-remasters]\2016 – Another Fall From Grace (EWSR021)\CD 1\08. The Mission – Bullets & Bayonets.wav

Peak level 99.4 %
Extraction speed 7.5 X
Track quality 100.0 %
Test CRC 1614423C
Copy CRC 1614423C
Accurately ripped (confidence 10) [91B1B6E8] (AR v2)
Copy OK

Track 9

Filename Z:\OdW\MISSION (UK) [non-remasters]\2016 – Another Fall From Grace (EWSR021)\CD 1\09. The Mission – Valaam.wav

Peak level 98.5 %
Extraction speed 3.7 X
Track quality 99.8 %
Test CRC 3818A503
Copy CRC 3818A503
Accurately ripped (confidence 11) [9F38A8E2] (AR v2)
Copy OK

Track 10

Filename Z:\OdW\MISSION (UK) [non-remasters]\2016 – Another Fall From Grace (EWSR021)\CD 1\10. The Mission – Jade.wav

Peak level 99.4 %
Extraction speed 6.9 X
Track quality 99.9 %
Test CRC 161D026F
Copy CRC 161D026F
Accurately ripped (confidence 11) [2A5DCCE4] (AR v2)
Copy OK

Track 11

Filename Z:\OdW\MISSION (UK) [non-remasters]\2016 – Another Fall From Grace (EWSR021)\CD 1\11. The Mission – Only You & You Alone.wav

Peak level 99.4 %
Extraction speed 8.2 X
Track quality 100.0 %
Test CRC A8B7B8DD
Copy CRC A8B7B8DD
Accurately ripped (confidence 11) [3256228D] (AR v2)
Copy OK

Track 12

Filename Z:\OdW\MISSION (UK) [non-remasters]\2016 – Another Fall From Grace (EWSR021)\CD 1\12. The Mission – Phantom Pain.wav

Peak level 99.4 %
Extraction speed 8.7 X
Track quality 100.0 %
Test CRC 0CA85C65
Copy CRC 0CA85C65
Accurately ripped (confidence 11) [9927A0A9] (AR v2)
Copy OK

All tracks accurately ripped

No errors occurred

End of status report

—- CUETools DB Plugin V2.1.6

[CTDB TOCID: FLiCa9VwgsKdPu2zqF_xFtBC1Eo-] found
Submit result: FLiCa9VwgsKdPu2zqF_xFtBC1Eo- has been confirmed
Track | CTDB Status
1 | (63/64) Accurately ripped
2 | (64/64) Accurately ripped
3 | (64/64) Accurately ripped
4 | (62/64) Accurately ripped
5 | (56/64) Accurately ripped, or (4/64) differs in 2 samples @02:44:41
6 | (62/64) Accurately ripped
7 | (56/64) Accurately ripped, or (1/64) differs in 62 samples @04:49:14,05:15:38
8 | (60/64) Accurately ripped
9 | (64/64) Accurately ripped
10 | (64/64) Accurately ripped
11 | (64/64) Accurately ripped
12 | (63/64) Accurately ripped

==== Log checksum E26065B4FD78AE559CFE391E3AB222689C0241C16DB37A1B5383AB7EE0C16938 ====

REM GENRE “Gothic Rock”
REM DATE 2016
REM DISCID BF0F0D0C
REM COMMENT “ExactAudioCopy v1.1”
PERFORMER “The Mission”
TITLE “Another Fall From Grace (EWSR021) CD 1”
FILE “01. The Mission Ð Another Fall from Grace.wav” WAVE
TRACK 01 AUDIO
TITLE “Another Fall from Grace”
PERFORMER “The Mission”
INDEX 01 00:00:00
FILE “02. The Mission Ð Met-Amor-Phosis.wav” WAVE
TRACK 02 AUDIO
TITLE “Met-Amor-Phosis”
PERFORMER “The Mission”
INDEX 01 00:00:00
FILE “03. The Mission Ð Within the Deepest Darkness (Fearful).wav” WAVE
TRACK 03 AUDIO
TITLE “Within the Deepest Darkness (Fearful)”
PERFORMER “The Mission”
INDEX 01 00:00:00
FILE “04. The Mission Ð Blood on the Road.wav” WAVE
TRACK 04 AUDIO
TITLE “Blood on the Road”
PERFORMER “The Mission”
INDEX 01 00:00:00
FILE “05. The Mission Ð Can’t See the Ocean for the Rain.wav” WAVE
TRACK 05 AUDIO
TITLE “Can’t See the Ocean for the Rain”
PERFORMER “The Mission”
INDEX 01 00:00:00
FILE “06. The Mission Ð Tyranny of Secrets.wav” WAVE
TRACK 06 AUDIO
TITLE “Tyranny of Secrets”
PERFORMER “The Mission”
INDEX 01 00:00:00
FILE “07. The Mission Ð Never’s Longer Than Forever.wav” WAVE
TRACK 07 AUDIO
TITLE “Never’s Longer Than Forever”
PERFORMER “The Mission”
INDEX 01 00:00:00
FILE “08. The Mission Ð Bullets & Bayonets.wav” WAVE
TRACK 08 AUDIO
TITLE “Bullets & Bayonets”
PERFORMER “The Mission”
INDEX 01 00:00:00
FILE “09. The Mission Ð Valaam.wav” WAVE
TRACK 09 AUDIO
TITLE “Valaam”
PERFORMER “The Mission”
INDEX 01 00:00:00
FILE “10. The Mission Ð Jade.wav” WAVE
TRACK 10 AUDIO
TITLE “Jade”
PERFORMER “The Mission”
INDEX 01 00:00:00
FILE “11. The Mission Ð Only You & You Alone.wav” WAVE
TRACK 11 AUDIO
TITLE “Only You & You Alone”
PERFORMER “The Mission”
INDEX 01 00:00:00
FILE “12. The Mission Ð Phantom Pain.wav” WAVE
TRACK 12 AUDIO
TITLE “Phantom Pain”
PERFORMER “The Mission”
INDEX 01 00:00:00

REM GENRE “Gothic Rock”
REM DATE 2016
REM DISCID D010C30D
REM COMMENT “ExactAudioCopy v1.1”
PERFORMER “The Mission”
TITLE “Another Fall From Grace (EWSR021) CD 2”
FILE “01. The Mission Ð Another Fall From Grace (Instrumental).wav” WAVE
TRACK 01 AUDIO
TITLE “Another Fall From Grace (Instrumental)”
PERFORMER “The Mission”
INDEX 01 00:00:00
FILE “02. The Mission Ð Met-Amor-Phosis (Instrumental).wav” WAVE
TRACK 02 AUDIO
TITLE “Met-Amor-Phosis (Instrumental)”
PERFORMER “The Mission”
INDEX 01 00:00:00
FILE “03. The Mission Ð WIthin The Deepest Darkness (Fearful) (Instrumental).wav” WAVE
TRACK 03 AUDIO
TITLE “WIthin The Deepest Darkness (Fearful) (Instrumental)”
PERFORMER “The Mission”
INDEX 01 00:00:00
FILE “04. The Mission Ð Blood On The Road (Instrumental).wav” WAVE
TRACK 04 AUDIO
TITLE “Blood On The Road (Instrumental)”
PERFORMER “The Mission”
INDEX 01 00:00:00
FILE “05. The Mission Ð Can’t See The Ocean For The Rain (Instrumental).wav” WAVE
TRACK 05 AUDIO
TITLE “Can’t See The Ocean For The Rain (Instrumental)”
PERFORMER “The Mission”
INDEX 01 00:00:00
FILE “06. The Mission Ð Tyranny Of Secrets (Instrumental).wav” WAVE
TRACK 06 AUDIO
TITLE “Tyranny Of Secrets (Instrumental)”
PERFORMER “The Mission”
INDEX 01 00:00:00
FILE “07. The Mission Ð Never’s Longer Than Forever (Instrumental).wav” WAVE
TRACK 07 AUDIO
TITLE “Never’s Longer Than Forever (Instrumental)”
PERFORMER “The Mission”
INDEX 01 00:00:00
FILE “08. The Mission Ð Bullets & Bayonets (Instrumental).wav” WAVE
TRACK 08 AUDIO
TITLE “Bullets & Bayonets (Instrumental)”
PERFORMER “The Mission”
INDEX 01 00:00:00
FILE “09. The Mission Ð Valaam (Instrumental).wav” WAVE
TRACK 09 AUDIO
TITLE “Valaam (Instrumental)”
PERFORMER “The Mission”
INDEX 01 00:00:00
FILE “10. The Mission Ð Jade (Instrumental).wav” WAVE
TRACK 10 AUDIO
TITLE “Jade (Instrumental)”
PERFORMER “The Mission”
INDEX 01 00:00:00
FILE “11. The Mission Ð Only You & You Alone (Instrumental).wav” WAVE
TRACK 11 AUDIO
TITLE “Only You & You Alone (Instrumental)”
PERFORMER “The Mission”
INDEX 01 00:00:00
FILE “12. The Mission Ð Phantom Pain (Instrumental).wav” WAVE
TRACK 12 AUDIO
TITLE “Phantom Pain (Instrumental)”
PERFORMER “The Mission”
INDEX 01 00:00:00
FILE “13. The Mission Ð Met-Amor-Phosis (Black Star Remix).wav” WAVE
TRACK 13 AUDIO
TITLE “Met-Amor-Phosis (Black Star Remix)”
PERFORMER “The Mission”
INDEX 01 00:00:00


Leave a Reply

Your email address will not be published. Required fields are marked *

This site uses Akismet to reduce spam. Learn how your comment data is processed.