The Mighty Mighty Bosstones – The Impression That I Get




Artist: The Mighty Mighty Bosstones
Year: 1997
Genre: Ska
Notes: Discogs
Add. Notes:
Cover incl.: Yes
Encoder: FLAC
Bitrate: ~900 kBit/s (44.1 kHz/16 Bit/s)
Log & Cue incl.: Yes
Size: 67,18 MB
Password: “slam” (without ” “)


All Downloads/Hosters are compatible

Download 1
Turbobit.net
Rapidgator.net
KatFile.com
UploadRar.com
Download 2
Turbobit.net
Rapidgator.net
KatFile.com
UploadRar.com
Download 3
Turbobit.net
Rapidgator.net
KatFile.com
UploadRar.com

Tracklist:

1 - The Impression That I Get - 3:15
2 - Wake Up Call - 2:16
3 - So Many Ways - 2:38

EAC-Log, CUE-Sheed & NFO:

Click to open spoiler
EAC extraction logfile from 15. May 2009, 22:07 for CD
The Mighty Mighty Bosstones / The Impression That I Get

Used drive : TSSTcorpCDDVDW TS-H653Q Adapter: 2 ID: 1
Read mode : Secure with NO C2, accurate stream, disable cache
Read offset correction : 6
Overread into Lead-In and Lead-Out : No

Used output format : C:\Program Files (x86)\FLAC\flac.exe (User Defined Encoder)
192 kBit/s
Additional command line options : -V -8 -T “artist=%a” -T “title=%t” -T “album=%g” -T “date=%y” -T “tracknumber=%n” -T “genre=%m” %s

Other options :
Fill up missing offset samples with silence : Yes
Delete leading and trailing silent blocks : No
Native Win32 interface for Win NT & 2000

Track 1
Filename C:\Users\ANTRON\Desktop\1997 – The Mighty Mighty Bosstones – The Impression That I Get CDS FLAC\01 – The Mighty Mighty Bosstones – The Impression That I Get.wav

Pre-gap length 0:00:02.00

Peak level 97.9 %
Track quality 100.0 %
Test CRC 2255FA6C
Copy CRC 2255FA6C
Copy OK

Track 2
Filename C:\Users\ANTRON\Desktop\1997 – The Mighty Mighty Bosstones – The Impression That I Get CDS FLAC\02 – The Mighty Mighty Bosstones – Is it .wav

Peak level 71.8 %
Track quality 100.0 %
Test CRC 724CB7C0
Copy CRC 724CB7C0
Copy OK

Track 3
Filename C:\Users\ANTRON\Desktop\1997 – The Mighty Mighty Bosstones – The Impression That I Get CDS FLAC\03 – The Mighty Mighty Bosstones – Storm Hit.wav

Peak level 68.0 %
Track quality 100.0 %
Test CRC 864C81C6
Copy CRC 864C81C6
Copy OK

No errors occured

End of status report

REM GENRE Ska
REM DATE 1997
REM DISCID 1E023503
REM COMMENT “ExactAudioCopy v0.95b4”
PERFORMER “The Mighty Mighty Bosstones”
TITLE “The Impression That I Get”
FILE “01 – The Mighty Mighty Bosstones – The Impression That I Get.wav” WAVE
TRACK 01 AUDIO
TITLE “The Impression That I Get”
PERFORMER “The Mighty Mighty Bosstones”
INDEX 01 00:00:00
FILE “02 – The Mighty Mighty Bosstones – Is it .wav” WAVE
TRACK 02 AUDIO
TITLE “Is it?”
PERFORMER “The Mighty Mighty Bosstones”
INDEX 01 00:00:00
FILE “03 – The Mighty Mighty Bosstones – Storm Hit.wav” WAVE
TRACK 03 AUDIO
TITLE “Storm Hit”
PERFORMER “The Mighty Mighty Bosstones”
INDEX 01 00:00:00


Leave a Reply

Your email address will not be published. Required fields are marked *

This site uses Akismet to reduce spam. Learn how your comment data is processed.