The Mighty Mighty Bosstones – The Best Of The Mighty Mighty Bosstones (20th Century Masters The Millennium Collection)




Artist: The Mighty Mighty Bosstones
Year: 2005
Genre: Ska
Notes: Discogs
Add. Notes:
Cover incl.: Yes
Encoder: FLAC
Bitrate: ~1100 kBit/s (44.1 kHz/16 Bit/s)
Log & Cue incl.: Yes
Size: 285,71 MB
Password: “slam” (without ” “)


All Downloads/Hosters are compatible

Download 1
Turbobit.net
Rapidgator.net
UploadEver.com
KatFile.com
UsersDrive.com
Download 2
Turbobit.net
Rapidgator.net
UploadEver.com
KatFile.com
UsersDrive.com
Download 3
Turbobit.net
Rapidgator.net
UploadEver.com
KatFile.com
UsersDrive.com

Tracklist:

1. Someday I Suppose 
2. Don't Know How To Party 
3. Simmer Down 
4. Detroit Rock City 
5. Kinder Words 
6. Pictures To Prove It 
7. Hell Of A Hat (Clean Remix) 
8. The Impression That I Get 
9. Royal Oil 
10. The Rascal King 
11. So Sad To Say 
12. She Just Happened

EAC-Log, CUE-Sheed & NFO:

Click to open spoiler
Exact Audio Copy V0.99 prebeta 4 from 23. January 2008

EAC extraction logfile from 13. January 2009, 15:02

The Mighty Mighty Bosstones / 20th Century Masters The Millennium Collection

Used drive : LITE-ON DVDRW LH-20A1S Adapter: 3 ID: 0

Read mode : Secure
Utilize accurate stream : Yes
Defeat audio cache : Yes
Make use of C2 pointers : No

Read offset correction : 6
Overread into Lead-In and Lead-Out : No
Fill up missing offset samples with silence : Yes
Delete leading and trailing silent blocks : No
Null samples used in CRC calculations : Yes
Used interface : Native Win32 interface for Win NT & 2000
Gap handling : Appended to previous track

Used output format : User Defined Encoder
Selected bitrate : 128 kBit/s
Quality : High
Add ID3 tag : No
Command line compressor : C:\Program Files (x86)\FLAC\flac.exe
Additional command line options : -V -8 -T “artist=%a” -T “title=%t” -T “album=%g” -T “date=%y” -T “tracknumber=%n” -T “genre=%m” %s

TOC of the extracted CD

Track | Start | Length | Start sector | End sector
———————————————————
1 | 0:00.00 | 3:29.37 | 0 | 15711
2 | 3:29.37 | 3:14.15 | 15712 | 30276
3 | 6:43.52 | 3:33.73 | 30277 | 46324
4 | 10:17.50 | 4:22.62 | 46325 | 66036
5 | 14:40.37 | 3:07.45 | 66037 | 80106
6 | 17:48.07 | 3:17.65 | 80107 | 94946
7 | 21:05.72 | 3:29.45 | 94947 | 110666
8 | 24:35.42 | 3:14.40 | 110667 | 125256
9 | 27:50.07 | 2:40.03 | 125257 | 137259
10 | 30:30.10 | 2:47.35 | 137260 | 149819
11 | 33:17.45 | 3:11.62 | 149820 | 164206
12 | 36:29.32 | 2:53.15 | 164207 | 177196

Track 1

Filename D:\rips\The Mighty Mighty Bosstones – The Best Of\01 – Someday I Suppose.wav

Pre-gap length 0:00:02.00

Peak level 98.8 %
Track quality 100.0 %
Test CRC D8A900D4
Copy CRC D8A900D4
Accurately ripped (confidence 5) [60B37EEE]
Copy OK

Track 2

Filename D:\rips\The Mighty Mighty Bosstones – The Best Of\02 – Don’t Know How To Party.wav

Peak level 97.7 %
Track quality 100.0 %
Test CRC 5D71CBF1
Copy CRC 5D71CBF1
Accurately ripped (confidence 5) [7794B158]
Copy OK

Track 3

Filename D:\rips\The Mighty Mighty Bosstones – The Best Of\03 – Simmer Down.wav

Peak level 98.8 %
Track quality 100.0 %
Test CRC 850167B3
Copy CRC 850167B3
Accurately ripped (confidence 5) [4CA4BCF1]
Copy OK

Track 4

Filename D:\rips\The Mighty Mighty Bosstones – The Best Of\04 – Detroit Rock City.wav

Peak level 98.8 %
Track quality 100.0 %
Test CRC D72ED2D3
Copy CRC D72ED2D3
Accurately ripped (confidence 5) [DA0AE556]
Copy OK

Track 5

Filename D:\rips\The Mighty Mighty Bosstones – The Best Of\05 – Kinder Words.wav

Peak level 97.7 %
Track quality 99.9 %
Test CRC 8837678E
Copy CRC 8837678E
Accurately ripped (confidence 5) [85C41D37]
Copy OK

Track 6

Filename D:\rips\The Mighty Mighty Bosstones – The Best Of\06 – Pictures To Prove It.wav

Peak level 98.8 %
Track quality 100.0 %
Test CRC 8451B7D5
Copy CRC 8451B7D5
Accurately ripped (confidence 5) [5463ED23]
Copy OK

Track 7

Filename D:\rips\The Mighty Mighty Bosstones – The Best Of\07 – Hell Of A Hat (Clean Remix).wav

Peak level 98.8 %
Track quality 100.0 %
Test CRC F27AC684
Copy CRC F27AC684
Accurately ripped (confidence 5) [92DF4589]
Copy OK

Track 8

Filename D:\rips\The Mighty Mighty Bosstones – The Best Of\08 – The Impression That I Get.wav

Peak level 97.7 %
Track quality 100.0 %
Test CRC 305DAD85
Copy CRC 305DAD85
Accurately ripped (confidence 5) [22691DD8]
Copy OK

Track 9

Filename D:\rips\The Mighty Mighty Bosstones – The Best Of\09 – Royal Oil.wav

Pre-gap length 0:00:00.93

Peak level 98.8 %
Track quality 99.9 %
Test CRC B9B31FEB
Copy CRC B9B31FEB
Accurately ripped (confidence 5) [51ACF3DB]
Copy OK

Track 10

Filename D:\rips\The Mighty Mighty Bosstones – The Best Of\10 – The Rascal King.wav

Pre-gap length 0:00:01.00

Peak level 98.8 %
Track quality 100.0 %
Test CRC 10730E8E
Copy CRC 10730E8E
Accurately ripped (confidence 5) [F8C2BC9E]
Copy OK

Track 11

Filename D:\rips\The Mighty Mighty Bosstones – The Best Of\11 – So Sad To Say.wav

Pre-gap length 0:00:01.44

Peak level 98.8 %
Track quality 100.0 %
Test CRC C2EF57D8
Copy CRC C2EF57D8
Accurately ripped (confidence 5) [DC8DEA23]
Copy OK

Track 12

Filename D:\rips\The Mighty Mighty Bosstones – The Best Of\12 – She Just Happened.wav

Pre-gap length 0:00:01.01

Peak level 98.8 %
Track quality 100.0 %
Test CRC AECACFF9
Copy CRC AECACFF9
Accurately ripped (confidence 5) [98AA5CB5]
Copy OK

All tracks accurately ripped

No errors occurred

End of status report

REM GENRE Ska
REM DATE 2005
REM DISCID A3093A0C
REM COMMENT “ExactAudioCopy v0.99pb4”
CATALOG 0602498823712
PERFORMER “The Mighty Mighty Bosstones”
TITLE “20th Century Masters The Millennium Collection”
FILE “01 – Someday I Suppose.wav” WAVE
TRACK 01 AUDIO
TITLE “Someday I Suppose”
PERFORMER “The Mighty Mighty Bosstones”
ISRC USIR20080320
INDEX 01 00:00:00
FILE “02 – Don’t Know How To Party.wav” WAVE
TRACK 02 AUDIO
TITLE “Don’t Know How To Party”
PERFORMER “The Mighty Mighty Bosstones”
ISRC USPR39400692
INDEX 01 00:00:00
FILE “03 – Simmer Down.wav” WAVE
TRACK 03 AUDIO
TITLE “Simmer Down”
PERFORMER “The Mighty Mighty Bosstones”
ISRC USPR39400691
INDEX 01 00:00:00
FILE “04 – Detroit Rock City.wav” WAVE
TRACK 04 AUDIO
TITLE “Detroit Rock City”
PERFORMER “The Mighty Mighty Bosstones”
ISRC USPR39400464
INDEX 01 00:00:00
FILE “05 – Kinder Words.wav” WAVE
TRACK 05 AUDIO
TITLE “Kinder Words”
PERFORMER “The Mighty Mighty Bosstones”
ISRC USPR39402183
INDEX 01 00:00:00
FILE “06 – Pictures To Prove It.wav” WAVE
TRACK 06 AUDIO
TITLE “Pictures To Prove It”
PERFORMER “The Mighty Mighty Bosstones”
ISRC USPR39402186
INDEX 01 00:00:00
FILE “07 – Hell Of A Hat (Clean Remix).wav” WAVE
TRACK 07 AUDIO
TITLE “Hell Of A Hat (Clean Remix)”
PERFORMER “The Mighty Mighty Bosstones”
ISRC USIR20500414
INDEX 01 00:00:00
FILE “08 – The Impression That I Get.wav” WAVE
TRACK 08 AUDIO
TITLE “The Impression That I Get”
PERFORMER “The Mighty Mighty Bosstones”
ISRC USIR20300360
INDEX 01 00:00:00
TRACK 09 AUDIO
TITLE “Royal Oil”
PERFORMER “The Mighty Mighty Bosstones”
ISRC USMR19780101
INDEX 00 03:13:45
FILE “09 – Royal Oil.wav” WAVE
INDEX 01 00:00:00
TRACK 10 AUDIO
TITLE “The Rascal King”
PERFORMER “The Mighty Mighty Bosstones”
ISRC USMR19780100
INDEX 00 02:39:03
FILE “10 – The Rascal King.wav” WAVE
INDEX 01 00:00:00
TRACK 11 AUDIO
TITLE “So Sad To Say”
PERFORMER “The Mighty Mighty Bosstones”
ISRC USIR20000118
INDEX 00 02:46:02
FILE “11 – So Sad To Say.wav” WAVE
INDEX 01 00:00:00
TRACK 12 AUDIO
TITLE “She Just Happened”
PERFORMER “The Mighty Mighty Bosstones”
ISRC USIR20000117
INDEX 00 03:10:61
FILE “12 – She Just Happened.wav” WAVE
INDEX 01 00:00:00

Leave a Reply

Your email address will not be published. Required fields are marked *

Enter the text from the image below
 

This site uses Akismet to reduce spam. Learn how your comment data is processed.