The Mighty Mighty BossToneS – So Far – So Good




Artist: The Mighty Mighty BossToneS
Year: 1997
Genre: Ska
Notes: Discogs
Add. Notes:
Cover incl.: Yes
Encoder: FLAC
Bitrate: ~1000 kBit/s (44.1 kHz/16 Bit/s)
Log & Cue incl.: Yes
Size: 150,77 MB
Password: “slam” (without ” “)


All Downloads/Hosters are compatible

Download 1
Turbobit.net
Rapidgator.net
KatFile.com
UsersDrive.com
CloudShare.to
Download 2
Turbobit.net
Rapidgator.net
KatFile.com
UsersDrive.com
CloudShare.to
Download 3
Turbobit.net
Rapidgator.net
KatFile.com
UsersDrive.com
CloudShare.to

Tracklist:

1 - The Impression That I Get - 3:15
2 - Where'd You Go - 3:27
3 - Someday I Suppose - 3:26
4 - Kinder Words - 3:06
5 - Simmer Down - 3:32
6 - Detroit Rock City - 4:21

EAC-Log, CUE-Sheed & NFO:

Click to open spoiler
Exact Audio Copy V0.99 prebeta 4 from 23. January 2008

EAC extraction logfile from 1. February 2009, 15:24

The Mighty Mighty Bosstones / So Far – So Good

Used drive : ASUS DRW-1814BLT Adapter: 3 ID: 0

Read mode : Secure
Utilize accurate stream : Yes
Defeat audio cache : Yes
Make use of C2 pointers : No

Read offset correction : 6
Overread into Lead-In and Lead-Out : No
Fill up missing offset samples with silence : Yes
Delete leading and trailing silent blocks : No
Null samples used in CRC calculations : Yes
Used interface : Native Win32 interface for Win NT & 2000
Gap handling : Appended to previous track

Used output format : User Defined Encoder
Selected bitrate : 896 kBit/s
Quality : High
Add ID3 tag : No
Command line compressor : C:\Program Files\Exact Audio Copy\FLAC\FLAC.EXE
Additional command line options : -6 -V -T “ARTIST=%a” -T “TITLE=%t” -T “ALBUM=%g” -T “DATE=%y” -T “TRACKNUMBER=%n” -T “GENRE=%m” -T “COMMENT=%e” %s -o %d

TOC of the extracted CD

Track | Start | Length | Start sector | End sector
———————————————————
1 | 0:00.00 | 3:15.50 | 0 | 14674
2 | 3:15.50 | 3:26.10 | 14675 | 30134
3 | 6:41.60 | 3:29.42 | 30135 | 45851
4 | 10:11.27 | 3:06.28 | 45852 | 59829
5 | 13:17.55 | 3:34.37 | 59830 | 75916
6 | 16:52.17 | 4:23.63 | 75917 | 95704

Track 1

Filename C:\Documents and Settings\ohadinu\My Documents\Downloads\MINE\The Mighty Mighty Bosstones – So Far – So Good\01 – The Impression That I Get.wav

Pre-gap length 0:00:02.00

Peak level 97.9 %
Track quality 100.0 %
Test CRC F876E045
Copy CRC F876E045
Accurately ripped (confidence 7) [77F7D00A]
Copy OK

Track 2

Filename C:\Documents and Settings\ohadinu\My Documents\Downloads\MINE\The Mighty Mighty Bosstones – So Far – So Good\02 – Where’d You Go .wav

Pre-gap length 0:00:01.30

Peak level 99.9 %
Track quality 100.0 %
Test CRC 84654C94
Copy CRC 84654C94
Accurately ripped (confidence 7) [8A997078]
Copy OK

Track 3

Filename C:\Documents and Settings\ohadinu\My Documents\Downloads\MINE\The Mighty Mighty Bosstones – So Far – So Good\03 – Someday I Suppose.wav

Pre-gap length 0:00:01.24

Peak level 100.0 %
Track quality 99.9 %
Test CRC B8E8A953
Copy CRC B8E8A953
Accurately ripped (confidence 7) [0007FD54]
Copy OK

Track 4

Filename C:\Documents and Settings\ohadinu\My Documents\Downloads\MINE\The Mighty Mighty Bosstones – So Far – So Good\04 – Kinder Words.wav

Pre-gap length 0:00:01.42

Peak level 99.9 %
Track quality 100.0 %
Test CRC 59182A36
Copy CRC 59182A36
Accurately ripped (confidence 7) [C714708A]
Copy OK

Track 5

Filename C:\Documents and Settings\ohadinu\My Documents\Downloads\MINE\The Mighty Mighty Bosstones – So Far – So Good\05 – Simmer Down.wav

Pre-gap length 0:00:00.84

Peak level 100.0 %
Track quality 99.9 %
Test CRC F0FEE5FB
Copy CRC F0FEE5FB
Accurately ripped (confidence 7) [8E425481]
Copy OK

Track 6

Filename C:\Documents and Settings\ohadinu\My Documents\Downloads\MINE\The Mighty Mighty Bosstones – So Far – So Good\06 – Detroit Rock City.wav

Pre-gap length 0:00:02.46

Peak level 98.8 %
Track quality 100.0 %
Test CRC 73635FDA
Copy CRC 73635FDA
Accurately ripped (confidence 7) [851B6234]
Copy OK

All tracks accurately ripped

No errors occurred

End of status report

REM GENRE Ska
REM DATE 1997
REM DISCID 4304FC06
REM COMMENT “ExactAudioCopy v0.99pb4”
PERFORMER “The Mighty Mighty Bosstones”
TITLE “So Far – So Good”
FILE “The Mighty Mighty Bosstones – So Far – So Good\01 – The Impression That I Get.wav” WAVE
TRACK 01 AUDIO
TITLE “The Impression That I Get”
PERFORMER “The Mighty Mighty Bosstones”
INDEX 01 00:00:00
TRACK 02 AUDIO
TITLE “Where’d You Go?”
PERFORMER “The Mighty Mighty Bosstones”
INDEX 00 03:14:27
FILE “The Mighty Mighty Bosstones – So Far – So Good\02 – Where’d You Go .wav” WAVE
INDEX 01 00:00:00
TRACK 03 AUDIO
TITLE “Someday I Suppose”
PERFORMER “The Mighty Mighty Bosstones”
INDEX 00 03:24:67
FILE “The Mighty Mighty Bosstones – So Far – So Good\03 – Someday I Suppose.wav” WAVE
INDEX 01 00:00:00
TRACK 04 AUDIO
TITLE “Kinder Words”
PERFORMER “The Mighty Mighty Bosstones”
INDEX 00 03:28:10
FILE “The Mighty Mighty Bosstones – So Far – So Good\04 – Kinder Words.wav” WAVE
INDEX 01 00:00:00
TRACK 05 AUDIO
TITLE “Simmer Down”
PERFORMER “The Mighty Mighty Bosstones”
INDEX 00 03:05:40
FILE “The Mighty Mighty Bosstones – So Far – So Good\05 – Simmer Down.wav” WAVE
INDEX 01 00:00:00
TRACK 06 AUDIO
TITLE “Detroit Rock City”
PERFORMER “The Mighty Mighty Bosstones”
INDEX 00 03:32:02
FILE “The Mighty Mighty Bosstones – So Far – So Good\06 – Detroit Rock City.wav” WAVE
INDEX 01 00:00:00

Leave a Reply

Your email address will not be published. Required fields are marked *

This site uses Akismet to reduce spam. Learn how your comment data is processed.