The Mighty Mighty Bosstones – Ska-Core, The Devil And More




Artist: The Mighty Mighty Bosstones
Year: 1993
Genre: Ska
Notes: Discogs
Add. Notes:
Cover incl.: Yes
Encoder: FLAC
Bitrate: ~1000 kBit/s (44.1 kHz/16 Bit/s)
Log & Cue incl.: Yes
Size: 137,48 MB
Password: “slam” (without ” “)


All Downloads/Hosters are compatible

Download 1
Turbobit.net
Rapidgator.net
UploadEver.com
KatFile.com
UsersDrive.com
Download 2
Turbobit.net
Rapidgator.net
UploadEver.com
KatFile.com
UsersDrive.com
Download 3
Turbobit.net
Rapidgator.net
UploadEver.com
KatFile.com
UsersDrive.com

Tracklist:

1 - Someday I Suppose - 3:26
2 - Think Again - 1:56
3 - Lights Out - 0:50
4 - Police Beat - 2:09
5 - Simmer Down - 3:32
6 - Drugs And Kittens / I'll Drink To That - 6:17

EAC-Log, CUE-Sheed & NFO:

Click to open spoiler
Exact Audio Copy V0.99 prebeta 4 from 23. January 2008

EAC extraction logfile from 5. May 2009, 13:07

Mighty Mighty Bosstones, The / Ska-Core, The Devil And More

Used drive : ATAPI DVD A DH16A1P Adapter: 0 ID: 0

Read mode : Secure
Utilize accurate stream : Yes
Defeat audio cache : Yes
Make use of C2 pointers : No

Read offset correction : 6
Overread into Lead-In and Lead-Out : No
Fill up missing offset samples with silence : Yes
Delete leading and trailing silent blocks : No
Null samples used in CRC calculations : Yes
Used interface : Native Win32 interface for Win NT & 2000
Gap handling : Appended to previous track

Used output format : User Defined Encoder
Selected bitrate : 128 kBit/s
Quality : High
Add ID3 tag : No
Command line compressor : C:\Program Files\Exact Audio Copy\Flac\flac.exe
Additional command line options : -V -8 -T “artist=%a” -T “title=%t” -T “album=%g” -T “date=%y” -T “tracknumber=%n” -T “genre=%m” %s

TOC of the extracted CD

Track | Start | Length | Start sector | End sector
———————————————————
1 | 0:00.32 | 3:26.65 | 32 | 15546
2 | 3:27.22 | 1:56.70 | 15547 | 24316
3 | 5:24.17 | 0:50.45 | 24317 | 28111
4 | 6:14.62 | 2:09.60 | 28112 | 37846
5 | 8:24.47 | 3:35.20 | 37847 | 53991
6 | 11:59.67 | 38:44.33 | 53992 | 228324

Track 1

Filename C:\EAC Rips\Mighty Mighty Bosstones, The – 1993 – Ska-Core, The Devil And More\01 – Someday I suppose.wav

Pre-gap length 0:00:02.42

Peak level 100.0 %
Track quality 99.9 %
Test CRC 1EB88380
Copy CRC 1EB88380
Accurately ripped (confidence 34) [A70932F6]
Copy OK

Track 2

Filename C:\EAC Rips\Mighty Mighty Bosstones, The – 1993 – Ska-Core, The Devil And More\02 – Think again.wav

Peak level 93.8 %
Track quality 100.0 %
Test CRC 4D1D83E2
Copy CRC 4D1D83E2
Accurately ripped (confidence 34) [DDE4D71A]
Copy OK

Track 3

Filename C:\EAC Rips\Mighty Mighty Bosstones, The – 1993 – Ska-Core, The Devil And More\03 – Lights out.wav

Peak level 100.0 %
Track quality 100.0 %
Test CRC 935454FA
Copy CRC 935454FA
Accurately ripped (confidence 34) [A4EB2E34]
Copy OK

Track 4

Filename C:\EAC Rips\Mighty Mighty Bosstones, The – 1993 – Ska-Core, The Devil And More\04 – Police beat.wav

Peak level 100.0 %
Track quality 100.0 %
Test CRC 6ABA2EDC
Copy CRC 6ABA2EDC
Accurately ripped (confidence 33) [5CDF5246]
Copy OK

Track 5

Filename C:\EAC Rips\Mighty Mighty Bosstones, The – 1993 – Ska-Core, The Devil And More\05 – Simmer down.wav

Pre-gap length 0:00:00.89

Peak level 100.0 %
Track quality 100.0 %
Test CRC 6D3FCE1C
Copy CRC 6D3FCE1C
Accurately ripped (confidence 35) [32BBCC1D]
Copy OK

Track 6

Filename C:\EAC Rips\Mighty Mighty Bosstones, The – 1993 – Ska-Core, The Devil And More\06 – Drugs and kittens I’ll drink to that.wav

Pre-gap length 0:00:02.80

Peak level 100.0 %
Track quality 99.9 %
Test CRC AEFA32BB
Copy CRC AEFA32BB
Accurately ripped (confidence 31) [239B3F16]
Copy OK

All tracks accurately ripped

No errors occurred

End of status report

REM GENRE Ska
REM DATE 1993
REM DISCID 3D0BE406
REM COMMENT “ExactAudioCopy v0.99pb4”
FILE “01 – Someday I suppose.wav” WAVE
TRACK 01 AUDIO
PREGAP 00:00:32
INDEX 01 00:00:00
FILE “02 – Think again.wav” WAVE
TRACK 02 AUDIO
INDEX 01 00:00:00
FILE “03 – Lights out.wav” WAVE
TRACK 03 AUDIO
INDEX 01 00:00:00
FILE “04 – Police beat.wav” WAVE
TRACK 04 AUDIO
INDEX 01 00:00:00
TRACK 05 AUDIO
INDEX 00 02:08:68
FILE “05 – Simmer down.wav” WAVE
INDEX 01 00:00:00
TRACK 06 AUDIO
INDEX 00 03:32:35
FILE “06 – Drugs and kittens I’ll drink to that.wav” WAVE
INDEX 01 00:00:00


Leave a Reply

Your email address will not be published. Required fields are marked *

Enter the text from the image below
 

This site uses Akismet to reduce spam. Learn how your comment data is processed.