The Mighty Mighty Bosstones – Question The Answers




Artist: The Mighty Mighty Bosstones
Year: 1994
Genre: Ska
Notes: Discogs
Add. Notes:
Cover incl.: Yes
Encoder: FLAC
Bitrate: ~800 kBit/s (44.1 kHz/16 Bit/s)
Log & Cue incl.: Yes
Size: 284,09 MB
Password: “slam” (without ” “)


All Downloads/Hosters are compatible

Download 1
Turbobit.net
Rapidgator.net
UploadEver.com
KatFile.com
UsersDrive.com
Download 2
Turbobit.net
Rapidgator.net
UploadEver.com
KatFile.com
UsersDrive.com
Download 3
Turbobit.net
Rapidgator.net
UploadEver.com
KatFile.com
UsersDrive.com

Tracklist:

1 - Kinder Words - 3:06
2 - A Sad Silence - 3:57
3 - Hell Of A Hat - 3:54
4 - Pictures To Prove It - 3:16
5 - We Should Talk - 3:11
6 - Dollar And A Dream - 3:18
7 - Stand Off - 3:22
8 - 365 Days - 3:10
9 - Toxic Toast - 3:47
10 - Bronzing The Garbage - 2:27
11 - Dogs And Chaplains - 3:01
12 - Jump Through The Hoops - 4:11

EAC-Log, CUE-Sheed & NFO:

Click to open spoiler
Exact Audio Copy V0.99 prebeta 4 from 23. January 2008

EAC extraction logfile from 30. July 2008, 18:56

The Mighty Mighty BossTones / Question The Answers

Used drive : ATAPI DVD A DH20A3H Adapter: 1 ID: 1

Read mode : Secure
Utilize accurate stream : Yes
Defeat audio cache : Yes
Make use of C2 pointers : No

Read offset correction : 6
Overread into Lead-In and Lead-Out : No
Fill up missing offset samples with silence : Yes
Delete leading and trailing silent blocks : No
Null samples used in CRC calculations : Yes
Used interface : Native Win32 interface for Win NT & 2000
Gap handling : Appended to previous track

Used output format : User Defined Encoder
Selected bitrate : 768 kBit/s
Quality : High
Add ID3 tag : No
Command line compressor : C:\Program Files\Exact Audio Copy\FLAC\FLAC.EXE
Additional command line options : -V -8 -T “artist=%a” -T “title=%t” -T “album=%g” -T “date=%y” -T “tracknumber=%n” -T “genre=%m” %s

TOC of the extracted CD

Track | Start | Length | Start sector | End sector
———————————————————
1 | 0:00.32 | 3:06.45 | 32 | 14026
2 | 3:07.02 | 3:57.33 | 14027 | 31834
3 | 7:04.35 | 3:54.50 | 31835 | 49434
4 | 10:59.10 | 3:16.10 | 49435 | 64144
5 | 14:15.20 | 3:11.72 | 64145 | 78541
6 | 17:27.17 | 3:18.20 | 78542 | 93411
7 | 20:45.37 | 3:22.18 | 93412 | 108579
8 | 24:07.55 | 3:10.55 | 108580 | 122884
9 | 27:18.35 | 3:47.27 | 122885 | 139936
10 | 31:05.62 | 2:27.65 | 139937 | 151026
11 | 33:33.52 | 3:01.73 | 151027 | 164674
12 | 36:35.50 | 4:11.35 | 164675 | 183534

Track 1

Filename E:\EACRips\01 – Kinder Words.wav

Pre-gap length 0:00:02.42

Peak level 98.8 %
Track quality 99.9 %
Test CRC 12D1B3FF
Copy CRC 12D1B3FF
Accurately ripped (confidence 9) [EC57C1CD]
Copy OK

Track 2

Filename E:\EACRips\02 – A Sad Silence.wav

Peak level 98.8 %
Track quality 99.9 %
Test CRC 7ECB29BE
Copy CRC 7ECB29BE
Accurately ripped (confidence 9) [3B716DA8]
Copy OK

Track 3

Filename E:\EACRips\03 – Hell of a Hat.wav

Peak level 98.8 %
Track quality 100.0 %
Test CRC A0255180
Copy CRC A0255180
Accurately ripped (confidence 9) [5F4C1B15]
Copy OK

Track 4

Filename E:\EACRips\04 – Pictures to Prove it.wav

Peak level 98.8 %
Track quality 100.0 %
Test CRC 0CFEB219
Copy CRC 0CFEB219
Accurately ripped (confidence 9) [7346C674]
Copy OK

Track 5

Filename E:\EACRips\05 – We Should Talk.wav

Peak level 98.8 %
Track quality 100.0 %
Test CRC 50F6066E
Copy CRC 50F6066E
Accurately ripped (confidence 9) [CB9B82B8]
Copy OK

Track 6

Filename E:\EACRips\06 – A Dollar and a Dream.wav

Peak level 98.3 %
Track quality 100.0 %
Test CRC 2682471F
Copy CRC 2682471F
Accurately ripped (confidence 9) [20C0F1DF]
Copy OK

Track 7

Filename E:\EACRips\07 – Stand Off.wav

Peak level 98.8 %
Track quality 99.9 %
Test CRC CF1CF93B
Copy CRC CF1CF93B
Accurately ripped (confidence 8) [C6EA4189]
Copy OK

Track 8

Filename E:\EACRips\08 – 365 Days.wav

Peak level 98.8 %
Track quality 100.0 %
Test CRC 024CDCD0
Copy CRC 024CDCD0
Accurately ripped (confidence 9) [AA182D9C]
Copy OK

Track 9

Filename E:\EACRips\09 – Toxic Toast.wav

Pre-gap length 0:00:00.73

Peak level 98.8 %
Track quality 100.0 %
Test CRC 0D4BEF66
Copy CRC 0D4BEF66
Accurately ripped (confidence 8) [E4CD2765]
Copy OK

Track 10

Filename E:\EACRips\10 – Bronzing the Garbage.wav

Pre-gap length 0:00:02.56

Peak level 98.8 %
Track quality 100.0 %
Test CRC C4306437
Copy CRC C4306437
Accurately ripped (confidence 9) [8450C12C]
Copy OK

Track 11

Filename E:\EACRips\11 – Dogs and Chaplains.wav

Peak level 98.8 %
Track quality 99.9 %
Test CRC 52C7FAD8
Copy CRC 52C7FAD8
Accurately ripped (confidence 9) [40C41372]
Copy OK

Track 12

Filename E:\EACRips\12 – Jump Through the Hoops.wav

Pre-gap length 0:00:02.00

Peak level 98.8 %
Track quality 100.0 %
Test CRC 626C4DB3
Copy CRC 626C4DB3
Accurately ripped (confidence 9) [48D99DB6]
Copy OK

All tracks accurately ripped

No errors occurred

End of status report

REM GENRE Ska
REM DATE 1994
REM DISCID AB098F0C
REM COMMENT “ExactAudioCopy v0.99pb4”
PERFORMER “The Mighty Mighty BossTones”
TITLE “Question The Answers”
FILE “01 – Kinder Words.wav” WAVE
TRACK 01 AUDIO
TITLE “Kinder Words”
PERFORMER “The Mighty Mighty BossTones”
PREGAP 00:00:32
INDEX 01 00:00:00
FILE “02 – A Sad Silence.wav” WAVE
TRACK 02 AUDIO
TITLE “A Sad Silence”
PERFORMER “The Mighty Mighty BossTones”
INDEX 01 00:00:00
FILE “03 – Hell of a Hat.wav” WAVE
TRACK 03 AUDIO
TITLE “Hell of a Hat”
PERFORMER “The Mighty Mighty BossTones”
INDEX 01 00:00:00
FILE “04 – Pictures to Prove it.wav” WAVE
TRACK 04 AUDIO
TITLE “Pictures to Prove it”
PERFORMER “The Mighty Mighty BossTones”
INDEX 01 00:00:00
FILE “05 – We Should Talk.wav” WAVE
TRACK 05 AUDIO
TITLE “We Should Talk”
PERFORMER “The Mighty Mighty BossTones”
INDEX 01 00:00:00
FILE “06 – A Dollar and a Dream.wav” WAVE
TRACK 06 AUDIO
TITLE “A Dollar and a Dream”
PERFORMER “The Mighty Mighty BossTones”
INDEX 01 00:00:00
FILE “07 – Stand Off.wav” WAVE
TRACK 07 AUDIO
TITLE “Stand Off”
PERFORMER “The Mighty Mighty BossTones”
INDEX 01 00:00:00
FILE “08 – 365 Days.wav” WAVE
TRACK 08 AUDIO
TITLE “365 Days”
PERFORMER “The Mighty Mighty BossTones”
INDEX 01 00:00:00
TRACK 09 AUDIO
TITLE “Toxic Toast”
PERFORMER “The Mighty Mighty BossTones”
INDEX 00 03:10:00
FILE “09 – Toxic Toast.wav” WAVE
INDEX 01 00:00:00
TRACK 10 AUDIO
TITLE “Bronzing the Garbage”
PERFORMER “The Mighty Mighty BossTones”
INDEX 00 03:44:60
FILE “10 – Bronzing the Garbage.wav” WAVE
INDEX 01 00:00:00
FILE “11 – Dogs and Chaplains.wav” WAVE
TRACK 11 AUDIO
TITLE “Dogs and Chaplains”
PERFORMER “The Mighty Mighty BossTones”
INDEX 01 00:00:00
TRACK 12 AUDIO
TITLE “Jump Through the Hoops”
PERFORMER “The Mighty Mighty BossTones”
INDEX 00 02:59:73
FILE “12 – Jump Through the Hoops.wav” WAVE
INDEX 01 00:00:00


Leave a Reply

Your email address will not be published. Required fields are marked *

This site uses Akismet to reduce spam. Learn how your comment data is processed.