The Mighty Mighty BossToneS – Pay Attention




Artist: The Mighty Mighty BossToneS
Year: 2000
Genre: Ska
Notes: Discogs
Add. Notes:
Cover incl.: No
Encoder: FLAC
Bitrate: ~1000 kBit/s (44.1 kHz/16 Bit/s)
Log & Cue incl.: Yes
Size: 392,14 MB
Password: “slam” (without ” “)


All Downloads/Hosters are compatible

Download 1
Turbobit.net
Rapidgator.net
KatFile.com
UploadRar.com
Download 2
Turbobit.net
Rapidgator.net
KatFile.com
UploadRar.com
Download 3
Turbobit.net
Rapidgator.net
KatFile.com
UploadRar.com

Tracklist:

1 - Let Me Be - 3:52
2 - The Skeleton Song - 3:00
3 - All Things Considered - 4:01
4 - So Sad To Say - 3:10
5 - Allow Them - 3:27
6 - High School Dance - 2:52
7 - Over The Eggshells - 2:59
8 - She Just Happened - 2:52
9 - Finally - 3:47
10 - I Know More - 3:08
11 - Riot On Broad Street - 3:13
12 - One Million Reasons - 3:01
13 - Bad News And Bad Breaks - 3:33
14 - Temporary Trip - 2:27
15 - Where You Come From - 2:46
16 - The Day He Didn't Die - 3:24

EAC-Log, CUE-Sheed & NFO:

Click to open spoiler
Exact Audio Copy V0.99 prebeta 4 from 23. January 2008

EAC extraction logfile from 21. April 2009, 16:26

The Mighty Mighty Bosstones / Pay Attention

Used drive : HL-DT-STDVD-RAM GSA-H55N Adapter: 1 ID: 1

Read mode : Secure
Utilize accurate stream : Yes
Defeat audio cache : Yes
Make use of C2 pointers : No

Read offset correction : 102
Overread into Lead-In and Lead-Out : No
Fill up missing offset samples with silence : Yes
Delete leading and trailing silent blocks : No
Null samples used in CRC calculations : Yes
Used interface : Native Win32 interface for Win NT & 2000
Gap handling : Appended to previous track

Used output format : User Defined Encoder
Selected bitrate : 128 kBit/s
Quality : High
Add ID3 tag : No
Command line compressor : C:\Program Files\Exact Audio Copy\Flac\flac.exe
Additional command line options : -V -8 -T “artist=%a” -T “title=%t” -T “album=%g” -T “date=%y” -T “tracknumber=%n” -T “genre=%m” %s

TOC of the extracted CD

Track | Start | Length | Start sector | End sector
———————————————————
1 | 0:00.00 | 3:52.35 | 0 | 17434
2 | 3:52.35 | 3:00.22 | 17435 | 30956
3 | 6:52.57 | 4:01.63 | 30957 | 49094
4 | 10:54.45 | 3:10.17 | 49095 | 63361
5 | 14:04.62 | 3:27.60 | 63362 | 78946
6 | 17:32.47 | 2:52.15 | 78947 | 91861
7 | 20:24.62 | 2:29.63 | 91862 | 103099
8 | 22:54.50 | 2:54.25 | 103100 | 116174
9 | 25:49.00 | 3:46.70 | 116175 | 133194
10 | 29:35.70 | 3:08.47 | 133195 | 147341
11 | 32:44.42 | 3:16.50 | 147342 | 162091
12 | 36:01.17 | 3:01.45 | 162092 | 175711
13 | 39:02.62 | 3:33.38 | 175712 | 191724
14 | 42:36.25 | 2:27.50 | 191725 | 202799
15 | 45:04.00 | 2:47.00 | 202800 | 215324
16 | 47:51.00 | 3:24.12 | 215325 | 230636

Track 1

Filename C:\Documents and Settings\Bill\Desktop\Mighty Mighty Bosstones, The – 2000 – Pay Attention (FLAC)\01 – Let Me Be.wav

Pre-gap length 0:00:02.00

Peak level 99.9 %
Track quality 99.9 %
Test CRC E235499A
Copy CRC E235499A
Cannot be verified as accurate (confidence 3) [4694157C], AccurateRip returned [6D2831C8]
Copy OK

Track 2

Filename C:\Documents and Settings\Bill\Desktop\Mighty Mighty Bosstones, The – 2000 – Pay Attention (FLAC)\02 – The Skeleton Song.wav

Peak level 99.9 %
Track quality 99.9 %
Test CRC C4D1C47C
Copy CRC C4D1C47C
Cannot be verified as accurate (confidence 3) [FB36ECF4], AccurateRip returned [2E9EFE2B]
Copy OK

Track 3

Filename C:\Documents and Settings\Bill\Desktop\Mighty Mighty Bosstones, The – 2000 – Pay Attention (FLAC)\03 – All Things Considered.wav

Peak level 99.9 %
Track quality 100.0 %
Test CRC 87B08162
Copy CRC 87B08162
Cannot be verified as accurate (confidence 4) [AD641EDC], AccurateRip returned [5C288446]
Copy OK

Track 4

Filename C:\Documents and Settings\Bill\Desktop\Mighty Mighty Bosstones, The – 2000 – Pay Attention (FLAC)\04 – So Sad To Say.wav

Pre-gap length 0:00:00.03

Peak level 99.9 %
Track quality 100.0 %
Test CRC EE94954A
Copy CRC EE94954A
Cannot be verified as accurate (confidence 3) [5E6ADD8B], AccurateRip returned [A74B7AEB]
Copy OK

Track 5

Filename C:\Documents and Settings\Bill\Desktop\Mighty Mighty Bosstones, The – 2000 – Pay Attention (FLAC)\05 – Allow Them.wav

Peak level 99.9 %
Track quality 100.0 %
Test CRC 2360E55C
Copy CRC 2360E55C
Cannot be verified as accurate (confidence 3) [278B194E], AccurateRip returned [305CFC30]
Copy OK

Track 6

Filename C:\Documents and Settings\Bill\Desktop\Mighty Mighty Bosstones, The – 2000 – Pay Attention (FLAC)\06 – High School Dance.wav

Peak level 99.9 %
Track quality 100.0 %
Test CRC 13F69394
Copy CRC 13F69394
Cannot be verified as accurate (confidence 3) [085A138A], AccurateRip returned [5D1F2047]
Copy OK

Track 7

Filename C:\Documents and Settings\Bill\Desktop\Mighty Mighty Bosstones, The – 2000 – Pay Attention (FLAC)\07 – Over The Eggshells.wav

Peak level 99.9 %
Track quality 100.0 %
Test CRC C327A37D
Copy CRC C327A37D
Cannot be verified as accurate (confidence 3) [EBEC15D0], AccurateRip returned [701C31F7]
Copy OK

Track 8

Filename C:\Documents and Settings\Bill\Desktop\Mighty Mighty Bosstones, The – 2000 – Pay Attention (FLAC)\08 – She Just Happened.wav

Peak level 99.9 %
Track quality 99.9 %
Test CRC 097E6E34
Copy CRC 097E6E34
Cannot be verified as accurate (confidence 3) [09C067B3], AccurateRip returned [D371E22F]
Copy OK

Track 9

Filename C:\Documents and Settings\Bill\Desktop\Mighty Mighty Bosstones, The – 2000 – Pay Attention (FLAC)\09 – Finally.wav

Pre-gap length 0:00:01.48

Peak level 99.9 %
Track quality 100.0 %
Test CRC 14CD0594
Copy CRC 14CD0594
Cannot be verified as accurate (confidence 3) [F48CE397], AccurateRip returned [7684D2C7]
Copy OK

Track 10

Filename C:\Documents and Settings\Bill\Desktop\Mighty Mighty Bosstones, The – 2000 – Pay Attention (FLAC)\10 – I Know More.wav

Peak level 99.9 %
Track quality 99.9 %
Test CRC 4DA8B2CC
Copy CRC 4DA8B2CC
Cannot be verified as accurate (confidence 3) [6CAE4E10], AccurateRip returned [7CEF34C4]
Copy OK

Track 11

Filename C:\Documents and Settings\Bill\Desktop\Mighty Mighty Bosstones, The – 2000 – Pay Attention (FLAC)\11 – Riot On Broad Street.wav

Peak level 99.9 %
Track quality 100.0 %
Test CRC 290DAAF2
Copy CRC 290DAAF2
Cannot be verified as accurate (confidence 3) [D92D363C], AccurateRip returned [28038249]
Copy OK

Track 12

Filename C:\Documents and Settings\Bill\Desktop\Mighty Mighty Bosstones, The – 2000 – Pay Attention (FLAC)\12 – One Million Reasons.wav

Peak level 100.0 %
Track quality 100.0 %
Test CRC CF82BBAF
Copy CRC CF82BBAF
Cannot be verified as accurate (confidence 3) [87A0A2C1], AccurateRip returned [EAEE5979]
Copy OK

Track 13

Filename C:\Documents and Settings\Bill\Desktop\Mighty Mighty Bosstones, The – 2000 – Pay Attention (FLAC)\13 – Bad News And Bad Breaks.wav

Peak level 99.9 %
Track quality 99.9 %
Test CRC 1B3C4B88
Copy CRC 1B3C4B88
Cannot be verified as accurate (confidence 3) [BDDEAF31], AccurateRip returned [C4BE7E1B]
Copy OK

Track 14

Filename C:\Documents and Settings\Bill\Desktop\Mighty Mighty Bosstones, The – 2000 – Pay Attention (FLAC)\14 – Temporary Trip.wav

Peak level 99.9 %
Track quality 100.0 %
Test CRC CB22E85D
Copy CRC CB22E85D
Cannot be verified as accurate (confidence 3) [1719601C], AccurateRip returned [6B0BC3F0]
Copy OK

Track 15

Filename C:\Documents and Settings\Bill\Desktop\Mighty Mighty Bosstones, The – 2000 – Pay Attention (FLAC)\15 – Where You Come From.wav

Pre-gap length 0:00:00.20

Peak level 100.0 %
Track quality 100.0 %
Test CRC AF120FA7
Copy CRC AF120FA7
Cannot be verified as accurate (confidence 3) [0D234465], AccurateRip returned [D2DF87F6]
Copy OK

Track 16

Filename C:\Documents and Settings\Bill\Desktop\Mighty Mighty Bosstones, The – 2000 – Pay Attention (FLAC)\16 – The Day He Didn’t Die.wav

Pre-gap length 0:00:00.23

Peak level 99.9 %
Track quality 100.0 %
Test CRC 41E2AE0D
Copy CRC 41E2AE0D
Cannot be verified as accurate (confidence 3) [688D00CD], AccurateRip returned [278B2F45]
Copy OK

No tracks could be verified as accurate
You may have a different pressing from the one(s) in the database

No errors occurred

End of status report

REM GENRE Ska
REM DATE 2000
REM DISCID E50C0310
REM COMMENT “ExactAudioCopy v0.99pb4”
PERFORMER “The Mighty Mighty Bosstones”
TITLE “Pay Attention”
FILE “01 – Let Me Be.wav” WAVE
TRACK 01 AUDIO
TITLE “Let Me Be”
PERFORMER “The Mighty Mighty Bosstones”
INDEX 01 00:00:00
FILE “02 – The Skeleton Song.wav” WAVE
TRACK 02 AUDIO
TITLE “The Skeleton Song”
PERFORMER “The Mighty Mighty Bosstones”
INDEX 01 00:00:00
FILE “03 – All Things Considered.wav” WAVE
TRACK 03 AUDIO
TITLE “All Things Considered”
PERFORMER “The Mighty Mighty Bosstones”
INDEX 01 00:00:00
TRACK 04 AUDIO
TITLE “So Sad To Say”
PERFORMER “The Mighty Mighty Bosstones”
INDEX 00 04:01:60
FILE “04 – So Sad To Say.wav” WAVE
INDEX 01 00:00:00
FILE “05 – Allow Them.wav” WAVE
TRACK 05 AUDIO
TITLE “Allow Them”
PERFORMER “The Mighty Mighty Bosstones”
INDEX 01 00:00:00
FILE “06 – High School Dance.wav” WAVE
TRACK 06 AUDIO
TITLE “High School Dance”
PERFORMER “The Mighty Mighty Bosstones”
INDEX 01 00:00:00
FILE “07 – Over The Eggshells.wav” WAVE
TRACK 07 AUDIO
TITLE “Over The Eggshells”
PERFORMER “The Mighty Mighty Bosstones”
INDEX 01 00:00:00
FILE “08 – She Just Happened.wav” WAVE
TRACK 08 AUDIO
TITLE “She Just Happened”
PERFORMER “The Mighty Mighty Bosstones”
INDEX 01 00:00:00
TRACK 09 AUDIO
TITLE “Finally”
PERFORMER “The Mighty Mighty Bosstones”
INDEX 00 02:52:52
FILE “09 – Finally.wav” WAVE
INDEX 01 00:00:00
FILE “10 – I Know More.wav” WAVE
TRACK 10 AUDIO
TITLE “I Know More”
PERFORMER “The Mighty Mighty Bosstones”
INDEX 01 00:00:00
FILE “11 – Riot On Broad Street.wav” WAVE
TRACK 11 AUDIO
TITLE “Riot On Broad Street”
PERFORMER “The Mighty Mighty Bosstones”
INDEX 01 00:00:00
FILE “12 – One Million Reasons.wav” WAVE
TRACK 12 AUDIO
TITLE “One Million Reasons”
PERFORMER “The Mighty Mighty Bosstones”
INDEX 01 00:00:00
FILE “13 – Bad News And Bad Breaks.wav” WAVE
TRACK 13 AUDIO
TITLE “Bad News And Bad Breaks”
PERFORMER “The Mighty Mighty Bosstones”
INDEX 01 00:00:00
FILE “14 – Temporary Trip.wav” WAVE
TRACK 14 AUDIO
TITLE “Temporary Trip”
PERFORMER “The Mighty Mighty Bosstones”
INDEX 01 00:00:00
TRACK 15 AUDIO
TITLE “Where You Come From”
PERFORMER “The Mighty Mighty Bosstones”
INDEX 00 02:27:30
FILE “15 – Where You Come From.wav” WAVE
INDEX 01 00:00:00
TRACK 16 AUDIO
TITLE “The Day He Didn’t Die”
PERFORMER “The Mighty Mighty Bosstones”
INDEX 00 02:46:52
FILE “16 – The Day He Didn’t Die.wav” WAVE
INDEX 01 00:00:00


Leave a Reply

Your email address will not be published. Required fields are marked *

This site uses Akismet to reduce spam. Learn how your comment data is processed.