The Mighty Mighty BossTones – More Noise And Other Disturbances




Artist: The Mighty Mighty BossTones
Year: 1992
Genre: Ska
Notes: Discogs
Add. Notes:
Cover incl.: Yes
Encoder: FLAC
Bitrate: ~1000 kBit/s (44.1 kHz/16 Bit/s)
Log & Cue incl.: Yes
Size: 217,96 MB
Password: “slam” (without ” “)


All Downloads/Hosters are compatible

Download 1
Turbobit.net
Rapidgator.net
KatFile.com
UploadRar.com
Download 2
Turbobit.net
Rapidgator.net
KatFile.com
UploadRar.com

Tracklist:

1 - Awfully Quiet - 3:08
2 - Where'd You Go - 3:26
3 - Dr. D - 2:02
4 - It Can't Hurt - 2:28
5 - What's At Stake - 2:53
6 - Cowboy Coffee - 1:55
7 - I'll Drink To That - 3:10
8 - Guns And The Young - 2:22
9 - He's Back - 3:12
10 - Bad In Plaid - 2:04
11 - They Came To Boston - 3:31

EAC-Log, CUE-Sheed & NFO:

Click to open spoiler
Exact Audio Copy V0.99 prebeta 4 from 23. January 2008

EAC extraction logfile from 24. October 2008, 9:59

The Mighty Mighty Bosstones / More Noise & Other Disturbances

Used drive : TSSTcorpCD/DVDW SH-S162L Adapter: 0 ID: 0

Read mode : Secure
Utilize accurate stream : Yes
Defeat audio cache : Yes
Make use of C2 pointers : No

Read offset correction : 6
Overread into Lead-In and Lead-Out : No
Fill up missing offset samples with silence : Yes
Delete leading and trailing silent blocks : No
Null samples used in CRC calculations : Yes
Used interface : Native Win32 interface for Win NT & 2000
Gap handling : Appended to previous track

Used output format : User Defined Encoder
Selected bitrate : 768 kBit/s
Quality : High
Add ID3 tag : No
Command line compressor : C:\Program Files\Exact Audio Copy\FLAC\FLAC.EXE
Additional command line options : -V -8 -T “artist=%a” -T “title=%t” -T “album=%g” -T “date=%y” -T “tracknumber=%n” -T “genre=%m” %s

TOC of the extracted CD

Track | Start | Length | Start sector | End sector
———————————————————
1 | 0:00.00 | 3:08.35 | 0 | 14134
2 | 3:08.35 | 3:26.60 | 14135 | 29644
3 | 6:35.20 | 2:02.00 | 29645 | 38794
4 | 8:37.20 | 2:28.05 | 38795 | 49899
5 | 11:05.25 | 2:53.35 | 49900 | 62909
6 | 13:58.60 | 1:55.73 | 62910 | 71607
7 | 15:54.58 | 3:10.62 | 71608 | 85919
8 | 19:05.45 | 2:22.55 | 85920 | 96624
9 | 21:28.25 | 3:12.38 | 96625 | 111062
10 | 24:40.63 | 2:04.72 | 111063 | 120434
11 | 26:45.60 | 3:31.25 | 120435 | 136284

Track 1

Filename D:\Waffle Irons\Mighty Mighty Bosstones More Noise FLAC Log\01 Awfully Quiet.wav

Pre-gap length 0:00:02.00

Peak level 86.9 %
Track quality 100.0 %
Test CRC 9179CAA7
Copy CRC 9179CAA7
Cannot be verified as accurate (confidence 5) [FE37AC00], AccurateRip returned [75AE9469]
Copy OK

Track 2

Filename D:\Waffle Irons\Mighty Mighty Bosstones More Noise FLAC Log\02 Where’d You Go .wav

Pre-gap length 0:00:01.06

Peak level 80.9 %
Track quality 100.0 %
Test CRC D1BC1731
Copy CRC D1BC1731
Cannot be verified as accurate (confidence 5) [CD034926], AccurateRip returned [B1B19BE7]
Copy OK

Track 3

Filename D:\Waffle Irons\Mighty Mighty Bosstones More Noise FLAC Log\03 Dr. D..wav

Pre-gap length 0:00:01.96

Peak level 70.4 %
Track quality 100.0 %
Test CRC 77CF1EE8
Copy CRC 77CF1EE8
Cannot be verified as accurate (confidence 5) [5A59F24C], AccurateRip returned [2514FE4C]
Copy OK

Track 4

Filename D:\Waffle Irons\Mighty Mighty Bosstones More Noise FLAC Log\04 It Can’t Hurt.wav

Pre-gap length 0:00:02.13

Peak level 94.9 %
Track quality 99.9 %
Test CRC B8B22D7C
Copy CRC B8B22D7C
Cannot be verified as accurate (confidence 5) [67AAE00D], AccurateRip returned [4032CDA4]
Copy OK

Track 5

Filename D:\Waffle Irons\Mighty Mighty Bosstones More Noise FLAC Log\05 What’s at Stake.wav

Pre-gap length 0:00:01.69

Peak level 95.5 %
Track quality 100.0 %
Test CRC 198709A1
Copy CRC 198709A1
Cannot be verified as accurate (confidence 5) [66C6C677], AccurateRip returned [B81BE9BE]
Copy OK

Track 6

Filename D:\Waffle Irons\Mighty Mighty Bosstones More Noise FLAC Log\06 Cowboy Coffee.wav

Pre-gap length 0:00:03.66

Peak level 71.1 %
Track quality 100.0 %
Test CRC F5AE0487
Copy CRC F5AE0487
Cannot be verified as accurate (confidence 5) [E0435027], AccurateRip returned [4A179F61]
Copy OK

Track 7

Filename D:\Waffle Irons\Mighty Mighty Bosstones More Noise FLAC Log\07 I’ll Drink to That.wav

Pre-gap length 0:00:02.44

Peak level 88.8 %
Track quality 100.0 %
Test CRC EFB5DF8D
Copy CRC EFB5DF8D
Cannot be verified as accurate (confidence 5) [DFB7EE60], AccurateRip returned [A8733078]
Copy OK

Track 8

Filename D:\Waffle Irons\Mighty Mighty Bosstones More Noise FLAC Log\08 Guns and the Young.wav

Pre-gap length 0:00:02.82

Peak level 88.5 %
Track quality 100.0 %
Test CRC C1E4C42B
Copy CRC C1E4C42B
Cannot be verified as accurate (confidence 5) [DEFC8B9C], AccurateRip returned [93D5B423]
Copy OK

Track 9

Filename D:\Waffle Irons\Mighty Mighty Bosstones More Noise FLAC Log\09 He’s Back.wav

Pre-gap length 0:00:03.02

Peak level 85.7 %
Track quality 100.0 %
Test CRC 99D4B3AC
Copy CRC 99D4B3AC
Cannot be verified as accurate (confidence 5) [7D651C8F], AccurateRip returned [AAC8FDB2]
Copy OK

Track 10

Filename D:\Waffle Irons\Mighty Mighty Bosstones More Noise FLAC Log\10 Bad in Plaid.wav

Pre-gap length 0:00:02.60

Peak level 88.2 %
Track quality 100.0 %
Test CRC 9DCBD064
Copy CRC 9DCBD064
Cannot be verified as accurate (confidence 5) [E394F486], AccurateRip returned [86F9C776]
Copy OK

Track 11

Filename D:\Waffle Irons\Mighty Mighty Bosstones More Noise FLAC Log\11 They Came to Boston.wav

Pre-gap length 0:00:02.42

Peak level 85.1 %
Track quality 100.0 %
Test CRC 0E9C7330
Copy CRC 0E9C7330
Cannot be verified as accurate (confidence 5) [03E2F8F7], AccurateRip returned [8894553F]
Copy OK

No tracks could be verified as accurate
You may have a different pressing from the one(s) in the database

No errors occurred

End of status report

REM GENRE Ska
REM DATE 1992
REM DISCID 9707190B
REM COMMENT “ExactAudioCopy v0.99pb4”
PERFORMER “The Mighty Mighty Bosstones”
TITLE “More Noise & Other Disturbances”
FILE “01 Awfully Quiet.wav” WAVE
TRACK 01 AUDIO
TITLE “Awfully Quiet”
PERFORMER “The Mighty Mighty Bosstones”
INDEX 01 00:00:00
TRACK 02 AUDIO
TITLE “Where’d You Go?”
PERFORMER “The Mighty Mighty Bosstones”
INDEX 00 03:07:30
FILE “02 Where’d You Go .wav” WAVE
INDEX 01 00:00:00
TRACK 03 AUDIO
TITLE “Dr. D.”
PERFORMER “The Mighty Mighty Bosstones”
INDEX 00 03:24:63
FILE “03 Dr. D..wav” WAVE
INDEX 01 00:00:00
TRACK 04 AUDIO
TITLE “It Can’t Hurt”
PERFORMER “The Mighty Mighty Bosstones”
INDEX 00 01:59:65
FILE “04 It Can’t Hurt.wav” WAVE
INDEX 01 00:00:00
TRACK 05 AUDIO
TITLE “What’s at Stake”
PERFORMER “The Mighty Mighty Bosstones”
INDEX 00 02:26:28
FILE “05 What’s at Stake.wav” WAVE
INDEX 01 00:00:00
TRACK 06 AUDIO
TITLE “Cowboy Coffee”
PERFORMER “The Mighty Mighty Bosstones”
INDEX 00 02:49:60
FILE “06 Cowboy Coffee.wav” WAVE
INDEX 01 00:00:00
TRACK 07 AUDIO
TITLE “I’ll Drink to That”
PERFORMER “The Mighty Mighty Bosstones”
INDEX 00 01:53:40
FILE “07 I’ll Drink to That.wav” WAVE
INDEX 01 00:00:00
TRACK 08 AUDIO
TITLE “Guns and the Young”
PERFORMER “The Mighty Mighty Bosstones”
INDEX 00 03:08:00
FILE “08 Guns and the Young.wav” WAVE
INDEX 01 00:00:00
TRACK 09 AUDIO
TITLE “He’s Back”
PERFORMER “The Mighty Mighty Bosstones”
INDEX 00 02:19:53
FILE “09 He’s Back.wav” WAVE
INDEX 01 00:00:00
TRACK 10 AUDIO
TITLE “Bad in Plaid”
PERFORMER “The Mighty Mighty Bosstones”
INDEX 00 03:09:68
FILE “10 Bad in Plaid.wav” WAVE
INDEX 01 00:00:00
TRACK 11 AUDIO
TITLE “They Came to Boston”
PERFORMER “The Mighty Mighty Bosstones”
INDEX 00 02:02:40
FILE “11 They Came to Boston.wav” WAVE
INDEX 01 00:00:00


Leave a Reply

Your email address will not be published. Required fields are marked *

This site uses Akismet to reduce spam. Learn how your comment data is processed.