The Mighty Mighty Bosstones – Live From The Middle East




Artist: The Mighty Mighty Bosstones
Year: 1998
Genre: Ska
Notes: Discogs
Add. Notes:
Cover incl.: Yes
Encoder: FLAC
Bitrate: ~1000 kBit/s (44.1 kHz/16 Bit/s)
Log & Cue incl.: Yes
Size: 467,21 MB
Password: “slam” (without ” “)


All Downloads/Hosters are compatible

Download 1
Turbobit.net
Rapidgator.net
KatFile.com
UploadRar.com
Download 2
Turbobit.net
Rapidgator.net
KatFile.com
UploadRar.com
Download 3
Turbobit.net
Rapidgator.net
KatFile.com
UploadRar.com

Tracklist:

1 - 1-2-8 - 3:12
2 - Do Somethin' Crazy - 2:19
3 - He's Back - 3:04
4 - Devil's Night Out - 2:41
5 - Kinder Words - 2:56
6 - Noise Brigade - 2:09
7 - The Rascal King - 2:41
8 - Hell Of A Hat - 3:41
9 - Holy Smoke - 3:51
10 - Hope I Never Lose My Wallet - 2:00
11 - I'll Drink To That - 3:11
12 - Royal Oil - 2:33
13 - Cowboy Coffee - 2:09
14 - Doves And Civilians - 2:32
15 - Let's Face It - 2:19
16 - Howwhywuz, Howwhyam - 2:25
17 - Dr. D - 2:51
18 - Where'd You Go? - 2:47
19 - Seven Thirty Seven/Shoe Glue - 4:16
20 - The Impression That I Get - 3:17
21 - Someday I Suppose - 3:10
22 - Lights Out - 1:13

EAC-Log, CUE-Sheed & NFO:

Click to open spoiler
EAC extraction logfile from 9. May 2009, 18:47 for CD
The Mighty Mighty Bosstones / Live from the Middle East

Used drive : TSSTcorpCD/DVDW TS-L632D Adapter: 0 ID: 1
Read mode : Secure with NO C2, accurate stream, disable cache
Read offset correction : 6
Overread into Lead-In and Lead-Out : No

Used output format : C:\Program Files\FLAC\flac.exe (User Defined Encoder)
128 kBit/s
Additional command line options : -V -8 -T “artist=%a” -T “title=%t” -T “album=%g” -T “date=%y” -T “tracknumber=%n” -T “genre=%m” %sber=%n -T genre=%m %s

Other options :
Fill up missing offset samples with silence : Yes
Delete leading and trailing silent blocks : No
Installed external ASPI interface

Track 1
Filename C:\Documents and Settings\Adam\Desktop\Rips\The Mighty Mighty Bosstones – Live From the Middle East\01 – The Mighty Mighty Bosstones – 1-2-8.wav

Pre-gap length 0:00:02.00

Peak level 100.0 %
Track quality 100.0 %
Test CRC 8EE2FE61
Copy CRC 8EE2FE61
Copy OK

Track 2
Filename C:\Documents and Settings\Adam\Desktop\Rips\The Mighty Mighty Bosstones – Live From the Middle East\02 – The Mighty Mighty Bosstones – Do Somethin’ Crazy.wav

Peak level 94.4 %
Track quality 100.0 %
Test CRC 56488A30
Copy CRC 56488A30
Copy OK

Track 3
Filename C:\Documents and Settings\Adam\Desktop\Rips\The Mighty Mighty Bosstones – Live From the Middle East\03 – The Mighty Mighty Bosstones – He’s Back.wav

Peak level 94.4 %
Track quality 100.0 %
Test CRC EFD30E59
Copy CRC EFD30E59
Copy OK

Track 4
Filename C:\Documents and Settings\Adam\Desktop\Rips\The Mighty Mighty Bosstones – Live From the Middle East\04 – The Mighty Mighty Bosstones – Devil’s Night Out.wav

Peak level 100.0 %
Track quality 100.0 %
Test CRC 32175884
Copy CRC 32175884
Copy OK

Track 5
Filename C:\Documents and Settings\Adam\Desktop\Rips\The Mighty Mighty Bosstones – Live From the Middle East\05 – The Mighty Mighty Bosstones – Kinder Words.wav

Peak level 99.9 %
Track quality 100.0 %
Test CRC D06A3F43
Copy CRC D06A3F43
Copy OK

Track 6
Filename C:\Documents and Settings\Adam\Desktop\Rips\The Mighty Mighty Bosstones – Live From the Middle East\06 – The Mighty Mighty Bosstones – Noise Brigade.wav

Peak level 100.0 %
Track quality 99.9 %
Test CRC C2766FDA
Copy CRC C2766FDA
Copy OK

Track 7
Filename C:\Documents and Settings\Adam\Desktop\Rips\The Mighty Mighty Bosstones – Live From the Middle East\07 – The Mighty Mighty Bosstones – The Rascal King.wav

Peak level 100.0 %
Track quality 100.0 %
Test CRC AFAAF795
Copy CRC AFAAF795
Copy OK

Track 8
Filename C:\Documents and Settings\Adam\Desktop\Rips\The Mighty Mighty Bosstones – Live From the Middle East\08 – The Mighty Mighty Bosstones – Hell of a Hat.wav

Peak level 94.4 %
Track quality 99.9 %
Test CRC E8634DC4
Copy CRC E8634DC4
Copy OK

Track 9
Filename C:\Documents and Settings\Adam\Desktop\Rips\The Mighty Mighty Bosstones – Live From the Middle East\09 – The Mighty Mighty Bosstones – Holy Smoke.wav

Peak level 100.0 %
Track quality 100.0 %
Test CRC D2D53E02
Copy CRC D2D53E02
Copy OK

Track 10
Filename C:\Documents and Settings\Adam\Desktop\Rips\The Mighty Mighty Bosstones – Live From the Middle East\10 – The Mighty Mighty Bosstones – Hope I Never Lose My Wallet.wav

Peak level 94.4 %
Track quality 100.0 %
Test CRC E6D3AB72
Copy CRC E6D3AB72
Copy OK

Track 11
Filename C:\Documents and Settings\Adam\Desktop\Rips\The Mighty Mighty Bosstones – Live From the Middle East\11 – The Mighty Mighty Bosstones – I’ll Drink to That.wav

Peak level 96.9 %
Track quality 99.9 %
Test CRC 03A18D85
Copy CRC 03A18D85
Copy OK

Track 12
Filename C:\Documents and Settings\Adam\Desktop\Rips\The Mighty Mighty Bosstones – Live From the Middle East\12 – The Mighty Mighty Bosstones – Royal Oil.wav

Peak level 99.9 %
Track quality 100.0 %
Test CRC B84ADA44
Copy CRC B84ADA44
Copy OK

Track 13
Filename C:\Documents and Settings\Adam\Desktop\Rips\The Mighty Mighty Bosstones – Live From the Middle East\13 – The Mighty Mighty Bosstones – Cowboy Coffee.wav

Peak level 100.0 %
Track quality 100.0 %
Test CRC C6D42EE9
Copy CRC C6D42EE9
Copy OK

Track 14
Filename C:\Documents and Settings\Adam\Desktop\Rips\The Mighty Mighty Bosstones – Live From the Middle East\14 – The Mighty Mighty Bosstones – Doves and Civilians.wav

Peak level 100.0 %
Track quality 100.0 %
Test CRC 8AF324A1
Copy CRC 8AF324A1
Copy OK

Track 15
Filename C:\Documents and Settings\Adam\Desktop\Rips\The Mighty Mighty Bosstones – Live From the Middle East\15 – The Mighty Mighty Bosstones – Let’s Face It.wav

Peak level 95.4 %
Track quality 100.0 %
Test CRC 4502A4E5
Copy CRC 4502A4E5
Copy OK

Track 16
Filename C:\Documents and Settings\Adam\Desktop\Rips\The Mighty Mighty Bosstones – Live From the Middle East\16 – The Mighty Mighty Bosstones – Howwhywuz, Howwhyam.wav

Peak level 97.1 %
Track quality 100.0 %
Test CRC 3447E384
Copy CRC 3447E384
Copy OK

Track 17
Filename C:\Documents and Settings\Adam\Desktop\Rips\The Mighty Mighty Bosstones – Live From the Middle East\17 – The Mighty Mighty Bosstones – Dr. D.wav

Peak level 100.0 %
Track quality 100.0 %
Test CRC 8FC1BB8E
Copy CRC 8FC1BB8E
Copy OK

Track 18
Filename C:\Documents and Settings\Adam\Desktop\Rips\The Mighty Mighty Bosstones – Live From the Middle East\18 – The Mighty Mighty Bosstones – Where’d You Go .wav

Peak level 100.0 %
Track quality 100.0 %
Test CRC C8D181CF
Copy CRC C8D181CF
Copy OK

Track 19
Filename C:\Documents and Settings\Adam\Desktop\Rips\The Mighty Mighty Bosstones – Live From the Middle East\19 – The Mighty Mighty Bosstones – Seven Thirty Seven – Shoe Glue.wav

Peak level 100.0 %
Track quality 100.0 %
Test CRC 9600DBF8
Copy CRC 9600DBF8
Copy OK

Track 20
Filename C:\Documents and Settings\Adam\Desktop\Rips\The Mighty Mighty Bosstones – Live From the Middle East\20 – The Mighty Mighty Bosstones – The Impression That I Get.wav

Peak level 100.0 %
Track quality 99.9 %
Test CRC 4C78834F
Copy CRC 4C78834F
Copy OK

Track 21
Filename C:\Documents and Settings\Adam\Desktop\Rips\The Mighty Mighty Bosstones – Live From the Middle East\21 – The Mighty Mighty Bosstones – Someday I Suppose.wav

Peak level 100.0 %
Track quality 100.0 %
Test CRC EA4A3673
Copy CRC EA4A3673
Copy OK

Track 22
Filename C:\Documents and Settings\Adam\Desktop\Rips\The Mighty Mighty Bosstones – Live From the Middle East\22 – The Mighty Mighty Bosstones – Lights Out.wav

Peak level 100.0 %
Track quality 100.0 %
Test CRC C2CE21C5
Copy CRC C2CE21C5
Copy OK

No errors occured

End of status report

REM GENRE Ska
REM DATE 1998
REM DISCID 3F0E6716
REM COMMENT “ExactAudioCopy v0.95b4”
PERFORMER “The Mighty Mighty Bosstones”
TITLE “Live from the Middle East”
FILE “01 – The Mighty Mighty Bosstones – 1-2-8.wav” WAVE
TRACK 01 AUDIO
TITLE “1-2-8”
PERFORMER “The Mighty Mighty Bosstones”
INDEX 01 00:00:00
FILE “02 – The Mighty Mighty Bosstones – Do Somethin’ Crazy.wav” WAVE
TRACK 02 AUDIO
TITLE “Do Somethin’ Crazy”
PERFORMER “The Mighty Mighty Bosstones”
INDEX 01 00:00:00
FILE “03 – The Mighty Mighty Bosstones – He’s Back.wav” WAVE
TRACK 03 AUDIO
TITLE “He’s Back”
PERFORMER “The Mighty Mighty Bosstones”
INDEX 01 00:00:00
FILE “04 – The Mighty Mighty Bosstones – Devil’s Night Out.wav” WAVE
TRACK 04 AUDIO
TITLE “Devil’s Night Out”
PERFORMER “The Mighty Mighty Bosstones”
INDEX 01 00:00:00
FILE “05 – The Mighty Mighty Bosstones – Kinder Words.wav” WAVE
TRACK 05 AUDIO
TITLE “Kinder Words”
PERFORMER “The Mighty Mighty Bosstones”
INDEX 01 00:00:00
FILE “06 – The Mighty Mighty Bosstones – Noise Brigade.wav” WAVE
TRACK 06 AUDIO
TITLE “Noise Brigade”
PERFORMER “The Mighty Mighty Bosstones”
INDEX 01 00:00:00
FILE “07 – The Mighty Mighty Bosstones – The Rascal King.wav” WAVE
TRACK 07 AUDIO
TITLE “The Rascal King”
PERFORMER “The Mighty Mighty Bosstones”
INDEX 01 00:00:00
FILE “08 – The Mighty Mighty Bosstones – Hell of a Hat.wav” WAVE
TRACK 08 AUDIO
TITLE “Hell of a Hat”
PERFORMER “The Mighty Mighty Bosstones”
INDEX 01 00:00:00
FILE “09 – The Mighty Mighty Bosstones – Holy Smoke.wav” WAVE
TRACK 09 AUDIO
TITLE “Holy Smoke”
PERFORMER “The Mighty Mighty Bosstones”
INDEX 01 00:00:00
FILE “10 – The Mighty Mighty Bosstones – Hope I Never Lose My Wallet.wav” WAVE
TRACK 10 AUDIO
TITLE “Hope I Never Lose My Wallet”
PERFORMER “The Mighty Mighty Bosstones”
INDEX 01 00:00:00
FILE “11 – The Mighty Mighty Bosstones – I’ll Drink to That.wav” WAVE
TRACK 11 AUDIO
TITLE “I’ll Drink to That”
PERFORMER “The Mighty Mighty Bosstones”
INDEX 01 00:00:00
FILE “12 – The Mighty Mighty Bosstones – Royal Oil.wav” WAVE
TRACK 12 AUDIO
TITLE “Royal Oil”
PERFORMER “The Mighty Mighty Bosstones”
INDEX 01 00:00:00
FILE “13 – The Mighty Mighty Bosstones – Cowboy Coffee.wav” WAVE
TRACK 13 AUDIO
TITLE “Cowboy Coffee”
PERFORMER “The Mighty Mighty Bosstones”
INDEX 01 00:00:00
FILE “14 – The Mighty Mighty Bosstones – Doves and Civilians.wav” WAVE
TRACK 14 AUDIO
TITLE “Doves and Civilians”
PERFORMER “The Mighty Mighty Bosstones”
INDEX 01 00:00:00
FILE “15 – The Mighty Mighty Bosstones – Let’s Face It.wav” WAVE
TRACK 15 AUDIO
TITLE “Let’s Face It”
PERFORMER “The Mighty Mighty Bosstones”
INDEX 01 00:00:00
FILE “16 – The Mighty Mighty Bosstones – Howwhywuz, Howwhyam.wav” WAVE
TRACK 16 AUDIO
TITLE “Howwhywuz, Howwhyam”
PERFORMER “The Mighty Mighty Bosstones”
INDEX 01 00:00:00
FILE “17 – The Mighty Mighty Bosstones – Dr. D.wav” WAVE
TRACK 17 AUDIO
TITLE “Dr. D”
PERFORMER “The Mighty Mighty Bosstones”
INDEX 01 00:00:00
FILE “18 – The Mighty Mighty Bosstones – Where’d You Go .wav” WAVE
TRACK 18 AUDIO
TITLE “Where’d You Go?”
PERFORMER “The Mighty Mighty Bosstones”
INDEX 01 00:00:00
FILE “19 – The Mighty Mighty Bosstones – Seven Thirty Seven – Shoe Glue.wav” WAVE
TRACK 19 AUDIO
TITLE “Seven Thirty Seven – Shoe Glue”
PERFORMER “The Mighty Mighty Bosstones”
INDEX 01 00:00:00
FILE “20 – The Mighty Mighty Bosstones – The Impression That I Get.wav” WAVE
TRACK 20 AUDIO
TITLE “The Impression That I Get”
PERFORMER “The Mighty Mighty Bosstones”
INDEX 01 00:00:00
FILE “21 – The Mighty Mighty Bosstones – Someday I Suppose.wav” WAVE
TRACK 21 AUDIO
TITLE “Someday I Suppose”
PERFORMER “The Mighty Mighty Bosstones”
INDEX 01 00:00:00
FILE “22 – The Mighty Mighty Bosstones – Lights Out.wav” WAVE
TRACK 22 AUDIO
TITLE “Lights Out”
PERFORMER “The Mighty Mighty Bosstones”
INDEX 01 00:00:00


Leave a Reply

Your email address will not be published. Required fields are marked *

This site uses Akismet to reduce spam. Learn how your comment data is processed.