The Mighty Mighty Bosstones – Let’s Face It




No Cover available

Artist: The Mighty Mighty Bosstones
Year: 1997
Genre: Ska
Notes: Discogs
Add. Notes:
Watch Songs on: YouTube
Cover incl.: Yes
Encoder: FLAC
Bitrate: ~1000 kBit/s (44.1 kHz/16 Bit/s)
Log & Cue incl.: Yes
Size: 242,7 MB
Password: “slam” (without ” “)


All Downloads/Hosters are compatible

Download 1
KatFile.com
Turbobit.net
FileFactory.com
Rapidgator.net
Download 2
KatFile.com
Turbobit.net
FileFactory.com
Rapidgator.net

Tracklist:

1 - Noise Brigade - 2:16
2 - The Rascal King - 2:46
3 - Royal Oil - 2:39
4 - The Impression That I Get - 3:15
5 - Let's Face It - 2:39
6 - That Bug Bit Me - 2:09
7 - Another Drinkin' Song - 3:50
8 - Numbered Days - 3:10
9 - Break So Easily - 2:45
10 - Nevermind Me - 3:21
11 - Desensitized - 2:04
12 - 1-2-8 - 2:39

EAC-Log, CUE-Sheed & NFO:

Click to open spoiler
Exact Audio Copy V0.99 prebeta 4 from 23. January 2008

EAC extraction logfile from 20. April 2008, 13:19

The Mighty Mighty Bosstones / Let’s Face It

Used drive : TOSHIBA ODD-DVD SD-R6372 Adapter: 1 ID: 0

Read mode : Secure
Utilize accurate stream : Yes
Defeat audio cache : Yes
Make use of C2 pointers : No

Read offset correction : 116
Overread into Lead-In and Lead-Out : No
Fill up missing offset samples with silence : Yes
Delete leading and trailing silent blocks : No
Null samples used in CRC calculations : Yes
Used interface : Native Win32 interface for Win NT & 2000
Gap handling : Appended to previous track

Used output format : User Defined Encoder
Selected bitrate : 768 kBit/s
Quality : High
Add ID3 tag : No
Command line compressor : C:\Program Files\FLAC\flac.exe
Additional command line options : -V -8 -T “artist=%a” -T “title=%t” -T “album=%g” -T “date=%y” -T “tracknumber=%n” %s

TOC of the extracted CD

Track | Start | Length | Start sector | End sector
———————————————————
1 | 0:00.00 | 2:13.70 | 0 | 10044
2 | 2:13.70 | 2:46.10 | 10045 | 22504
3 | 5:00.05 | 2:38.70 | 22505 | 34424
4 | 7:39.00 | 3:14.57 | 34425 | 49031
5 | 10:53.57 | 2:33.10 | 49032 | 60516
6 | 13:26.67 | 2:07.35 | 60517 | 70076
7 | 15:34.27 | 3:49.13 | 70077 | 87264
8 | 19:23.40 | 3:11.07 | 87265 | 101596
9 | 22:34.47 | 2:44.40 | 101597 | 113936
10 | 25:19.12 | 3:23.15 | 113937 | 129176
11 | 28:42.27 | 2:04.53 | 129177 | 138529
12 | 30:47.05 | 2:38.62 | 138530 | 150441

Track 1

Filename C:\Hi there RIAA, What’s up IFPI\The Mighty Mighty Bosstones – Let’s Face It\01 – Noise Brigade.wav

Pre-gap length 0:00:02.00

Peak level 92.8 %
Track quality 100.0 %
Test CRC 21383998
Copy CRC 21383998
Accurately ripped (confidence 4) [DFF1F540]
Copy OK

Track 2

Filename C:\Hi there RIAA, What’s up IFPI\The Mighty Mighty Bosstones – Let’s Face It\02 – The Rascal King.wav

Peak level 92.8 %
Track quality 100.0 %
Test CRC F00889D3
Copy CRC F00889D3
Accurately ripped (confidence 5) [AA20B200]
Copy OK

Track 3

Filename C:\Hi there RIAA, What’s up IFPI\The Mighty Mighty Bosstones – Let’s Face It\03 – Royal Oil.wav

Peak level 97.7 %
Track quality 100.0 %
Test CRC 3A1A041B
Copy CRC 3A1A041B
Accurately ripped (confidence 4) [CB5D2F54]
Copy OK

Track 4

Filename C:\Hi there RIAA, What’s up IFPI\The Mighty Mighty Bosstones – Let’s Face It\04 – The Impression That I Get.wav

Peak level 97.9 %
Track quality 100.0 %
Test CRC 04CD716D
Copy CRC 04CD716D
Accurately ripped (confidence 4) [B35D8748]
Copy OK

Track 5

Filename C:\Hi there RIAA, What’s up IFPI\The Mighty Mighty Bosstones – Let’s Face It\05 – Let’s Face It.wav

Peak level 97.9 %
Track quality 100.0 %
Test CRC FB31B2CB
Copy CRC FB31B2CB
Accurately ripped (confidence 4) [846ED57B]
Copy OK

Track 6

Filename C:\Hi there RIAA, What’s up IFPI\The Mighty Mighty Bosstones – Let’s Face It\06 – That Bug Bit Me.wav

Peak level 97.9 %
Track quality 100.0 %
Test CRC 7E6848F4
Copy CRC 7E6848F4
Accurately ripped (confidence 5) [87E325C3]
Copy OK

Track 7

Filename C:\Hi there RIAA, What’s up IFPI\The Mighty Mighty Bosstones – Let’s Face It\07 – Another Drinkin’ Song.wav

Peak level 99.9 %
Track quality 100.0 %
Test CRC 21CE38CF
Copy CRC 21CE38CF
Accurately ripped (confidence 4) [0675761C]
Copy OK

Track 8

Filename C:\Hi there RIAA, What’s up IFPI\The Mighty Mighty Bosstones – Let’s Face It\08 – Numbered Days.wav

Peak level 97.9 %
Track quality 100.0 %
Test CRC EC786A53
Copy CRC EC786A53
Accurately ripped (confidence 5) [B7F4FADC]
Copy OK

Track 9

Filename C:\Hi there RIAA, What’s up IFPI\The Mighty Mighty Bosstones – Let’s Face It\09 – Break So Easily.wav

Peak level 97.7 %
Track quality 100.0 %
Test CRC 87635BDF
Copy CRC 87635BDF
Accurately ripped (confidence 4) [3AB7502F]
Copy OK

Track 10

Filename C:\Hi there RIAA, What’s up IFPI\The Mighty Mighty Bosstones – Let’s Face It\10 – Nevermind Me.wav

Peak level 100.0 %
Track quality 99.9 %
Test CRC C0A267C2
Copy CRC C0A267C2
Accurately ripped (confidence 4) [91D62EFA]
Copy OK

Track 11

Filename C:\Hi there RIAA, What’s up IFPI\The Mighty Mighty Bosstones – Let’s Face It\11 – Desensitized.wav

Pre-gap length 0:00:01.49

Peak level 97.9 %
Track quality 100.0 %
Test CRC AFCAC713
Copy CRC AFCAC713
Accurately ripped (confidence 5) [46253195]
Copy OK

Track 12

Filename C:\Hi there RIAA, What’s up IFPI\The Mighty Mighty Bosstones – Let’s Face It\12 – 1-2-8.wav

Peak level 97.9 %
Track quality 100.0 %
Test CRC DFCF0FB2
Copy CRC DFCF0FB2
Accurately ripped (confidence 5) [9130EA42]
Copy OK

All tracks accurately ripped

No errors occurred

End of status report

REM DATE 1997
REM DISCID 9607D50C
REM COMMENT “ExactAudioCopy v0.99pb4”
PERFORMER “The Mighty Mighty Bosstones”
TITLE “Let’s Face It”
FILE “01 – Noise Brigade.flac” WAVE
TRACK 01 AUDIO
TITLE “Noise Brigade”
PERFORMER “The Mighty Mighty Bosstones”
INDEX 01 00:00:00
FILE “02 – The Rascal King.flac” WAVE
TRACK 02 AUDIO
TITLE “The Rascal King”
PERFORMER “The Mighty Mighty Bosstones”
INDEX 01 00:00:00
FILE “03 – Royal Oil.flac” WAVE
TRACK 03 AUDIO
TITLE “Royal Oil”
PERFORMER “The Mighty Mighty Bosstones”
INDEX 01 00:00:00
FILE “04 – The Impression That I Get.flac” WAVE
TRACK 04 AUDIO
TITLE “The Impression That I Get”
PERFORMER “The Mighty Mighty Bosstones”
INDEX 01 00:00:00
FILE “05 – Let’s Face It.flac” WAVE
TRACK 05 AUDIO
TITLE “Let’s Face It”
PERFORMER “The Mighty Mighty Bosstones”
INDEX 01 00:00:00
FILE “06 – That Bug Bit Me.flac” WAVE
TRACK 06 AUDIO
TITLE “That Bug Bit Me”
PERFORMER “The Mighty Mighty Bosstones”
INDEX 01 00:00:00
FILE “07 – Another Drinkin’ Song.flac” WAVE
TRACK 07 AUDIO
TITLE “Another Drinkin’ Song”
PERFORMER “The Mighty Mighty Bosstones”
INDEX 01 00:00:00
FILE “08 – Numbered Days.flac” WAVE
TRACK 08 AUDIO
TITLE “Numbered Days”
PERFORMER “The Mighty Mighty Bosstones”
INDEX 01 00:00:00
FILE “09 – Break So Easily.flac” WAVE
TRACK 09 AUDIO
TITLE “Break So Easily”
PERFORMER “The Mighty Mighty Bosstones”
INDEX 01 00:00:00
FILE “10 – Nevermind Me.flac” WAVE
TRACK 10 AUDIO
TITLE “Nevermind Me”
PERFORMER “The Mighty Mighty Bosstones”
INDEX 01 00:00:00
TRACK 11 AUDIO
TITLE “Desensitized”
PERFORMER “The Mighty Mighty Bosstones”
INDEX 00 03:21:41
FILE “11 – Desensitized.flac” WAVE
INDEX 01 00:00:00
INDEX 02 00:06:01
FILE “12 – 1-2-8.flac” WAVE
TRACK 12 AUDIO
TITLE “1-2-8”
PERFORMER “The Mighty Mighty Bosstones”
INDEX 01 00:00:00


Leave a Reply

Your email address will not be published. Required fields are marked *

This site uses Akismet to reduce spam. Learn how your comment data is processed.