The Mighty Mighty Bosstones – Don’t Know How to Party




Artist: The Mighty Mighty Bosstones
Year: 1993
Genre: Ska
Notes: Discogs
Add. Notes:
Cover incl.: Yes
Encoder: FLAC
Bitrate: ~1000 kBit/s (44.1 kHz/16 Bit/s)
Log & Cue incl.: Yes
Size: 289,67 MB
Password: “slam” (without ” “)


All Downloads/Hosters are compatible

Download 1
Turbobit.net
Rapidgator.net
UploadEver.com
KatFile.com
UsersDrive.com
Download 2
Turbobit.net
Rapidgator.net
UploadEver.com
KatFile.com
UsersDrive.com
Download 3
Turbobit.net
Rapidgator.net
UploadEver.com
KatFile.com
UsersDrive.com

Tracklist:

1 - Our Only Weapon - 3:08
2 - Last Dead Mouse - 3:37
3 - Don't Know How To Party - 3:14
4 - Someday I Suppose - 3:28
5 - A Man Without - 2:47
6 - Holy Smoke - 2:52
7 - Illegal Left - 3:11
8 - Tin Soldiers - 3:24
9 - Almost Anything Goes - 4:10
10 - Issachar - 3:46
11 - What Was Was Over - 2:59
12 - Seven Thirty Seven-Shoe Glue - 4:31

EAC-Log, CUE-Sheed & NFO:

Click to open spoiler
Exact Audio Copy V0.99 prebeta 4 from 23. January 2008

EAC extraction logfile from 17. February 2009, 13:00

The Mighty Mighty Bosstones / Don’t Know How to Party

Used drive : Optiarc DVD RW AD-5170A Adapter: 2 ID: 0

Read mode : Secure
Utilize accurate stream : Yes
Defeat audio cache : Yes
Make use of C2 pointers : No

Read offset correction : 48
Overread into Lead-In and Lead-Out : No
Fill up missing offset samples with silence : Yes
Delete leading and trailing silent blocks : No
Null samples used in CRC calculations : Yes
Used interface : Native Win32 interface for Win NT & 2000
Gap handling : Appended to previous track

Used output format : User Defined Encoder
Selected bitrate : 320 kBit/s
Quality : High
Add ID3 tag : No
Command line compressor : C:\Program Files\Exact Audio Copy\Flac\flac.exe
Additional command line options : -V -8 -T “artist=%a” -T “title=%t” -T “album=%g” -T “date=%y” -T “tracknumber=%n” -T “genre=%m” %s

TOC of the extracted CD

Track | Start | Length | Start sector | End sector
———————————————————
1 | 0:00.32 | 3:07.53 | 32 | 14109
2 | 3:08.10 | 3:37.32 | 14110 | 30416
3 | 6:45.42 | 3:14.40 | 30417 | 45006
4 | 10:00.07 | 3:28.00 | 45007 | 60606
5 | 13:28.07 | 2:47.25 | 60607 | 73156
6 | 16:15.32 | 2:52.65 | 73157 | 86121
7 | 19:08.22 | 3:11.58 | 86122 | 100504
8 | 22:20.05 | 3:24.27 | 100505 | 115831
9 | 25:44.32 | 4:10.73 | 115832 | 134654
10 | 29:55.30 | 3:46.67 | 134655 | 151671
11 | 33:42.22 | 2:59.25 | 151672 | 165121
12 | 36:41.47 | 4:32.08 | 165122 | 185529

Track 1

Filename D:\–=Ripper =–\Don’t Know How to Party – 1993\01 – The Mighty Mighty Bosstones – Our Only Weapon .wav

Pre-gap length 0:00:02.42

Peak level 100.0 %
Track quality 100.0 %
Test CRC B62EF2FE
Copy CRC B62EF2FE
Accurately ripped (confidence 29) [C2C31969]
Copy OK

Track 2

Filename D:\–=Ripper =–\Don’t Know How to Party – 1993\02 – The Mighty Mighty Bosstones – Last Dead Mouse .wav

Peak level 100.0 %
Track quality 100.0 %
Test CRC 72F56078
Copy CRC 72F56078
Accurately ripped (confidence 29) [940B6170]
Copy OK

Track 3

Filename D:\–=Ripper =–\Don’t Know How to Party – 1993\03 – The Mighty Mighty Bosstones – Don’t Know How to Party .wav

Pre-gap length 0:00:00.13

Peak level 100.0 %
Track quality 100.0 %
Test CRC 11B5175B
Copy CRC 11B5175B
Accurately ripped (confidence 29) [6D6A3A93]
Copy OK

Track 4

Filename D:\–=Ripper =–\Don’t Know How to Party – 1993\04 – The Mighty Mighty Bosstones – Someday I Suppose .wav

Pre-gap length 0:00:00.76

Peak level 100.0 %
Track quality 100.0 %
Test CRC 0B8088F7
Copy CRC 0B8088F7
Accurately ripped (confidence 29) [151958F2]
Copy OK

Track 5

Filename D:\–=Ripper =–\Don’t Know How to Party – 1993\05 – The Mighty Mighty Bosstones – A Man Without .wav

Pre-gap length 0:00:00.26

Peak level 100.0 %
Track quality 100.0 %
Test CRC 202505FC
Copy CRC 202505FC
Accurately ripped (confidence 29) [095EB8C8]
Copy OK

Track 6

Filename D:\–=Ripper =–\Don’t Know How to Party – 1993\06 – The Mighty Mighty Bosstones – Holy Smoke .wav

Pre-gap length 0:00:01.42

Peak level 100.0 %
Track quality 100.0 %
Test CRC 69CEBDF2
Copy CRC 69CEBDF2
Accurately ripped (confidence 29) [5C46B169]
Copy OK

Track 7

Filename D:\–=Ripper =–\Don’t Know How to Party – 1993\07 – The Mighty Mighty Bosstones – Illegal Left .wav

Peak level 100.0 %
Track quality 100.0 %
Test CRC C2C7C993
Copy CRC C2C7C993
Accurately ripped (confidence 29) [AF0EEF1A]
Copy OK

Track 8

Filename D:\–=Ripper =–\Don’t Know How to Party – 1993\08 – The Mighty Mighty Bosstones – Tin Soldiers .wav

Pre-gap length 0:00:00.53

Peak level 100.0 %
Track quality 100.0 %
Test CRC 9E6137DF
Copy CRC 9E6137DF
Accurately ripped (confidence 28) [820A6FB3]
Copy OK

Track 9

Filename D:\–=Ripper =–\Don’t Know How to Party – 1993\09 – The Mighty Mighty Bosstones – Almost Anything Goes .wav

Pre-gap length 0:00:01.46

Peak level 100.0 %
Track quality 100.0 %
Test CRC A04B3A0D
Copy CRC A04B3A0D
Accurately ripped (confidence 29) [E2E1A1F3]
Copy OK

Track 10

Filename D:\–=Ripper =–\Don’t Know How to Party – 1993\10 – The Mighty Mighty Bosstones – Issachar .wav

Pre-gap length 0:00:00.53

Peak level 100.0 %
Track quality 100.0 %
Test CRC F71ADF52
Copy CRC F71ADF52
Accurately ripped (confidence 28) [CD9ABC21]
Copy OK

Track 11

Filename D:\–=Ripper =–\Don’t Know How to Party – 1993\11 – The Mighty Mighty Bosstones – What Was Was Over .wav

Pre-gap length 0:00:00.69

Peak level 100.0 %
Track quality 99.9 %
Test CRC F7E029C4
Copy CRC F7E029C4
Accurately ripped (confidence 29) [4E2F1201]
Copy OK

Track 12

Filename D:\–=Ripper =–\Don’t Know How to Party – 1993\12 – The Mighty Mighty Bosstones – Seven Thirty Seven,Shoe Glue .wav

Pre-gap length 0:00:00.26

Peak level 100.0 %
Track quality 100.0 %
Test CRC F630DE6C
Copy CRC F630DE6C
Accurately ripped (confidence 27) [D53FE241]
Copy OK

All tracks accurately ripped

No errors occurred

End of status report

REM GENRE Ska
REM DATE 1993
REM DISCID 8709A90C
REM COMMENT “ExactAudioCopy v0.99pb4”
FILE “Don’t Know How to Party – 1993\01 – The Mighty Mighty Bosstones – Our Only Weapon .wav” WAVE
TRACK 01 AUDIO
PREGAP 00:00:32
INDEX 01 00:00:00
FILE “Don’t Know How to Party – 1993\02 – The Mighty Mighty Bosstones – Last Dead Mouse .wav” WAVE
TRACK 02 AUDIO
INDEX 01 00:00:00
TRACK 03 AUDIO
INDEX 00 03:37:22
FILE “Don’t Know How to Party – 1993\03 – The Mighty Mighty Bosstones – Don’t Know How to Party .wav” WAVE
INDEX 01 00:00:00
TRACK 04 AUDIO
INDEX 00 03:13:58
FILE “Don’t Know How to Party – 1993\04 – The Mighty Mighty Bosstones – Someday I Suppose .wav” WAVE
INDEX 01 00:00:00
TRACK 05 AUDIO
INDEX 00 03:27:55
FILE “Don’t Know How to Party – 1993\05 – The Mighty Mighty Bosstones – A Man Without .wav” WAVE
INDEX 01 00:00:00
TRACK 06 AUDIO
INDEX 00 02:45:68
FILE “Don’t Know How to Party – 1993\06 – The Mighty Mighty Bosstones – Holy Smoke .wav” WAVE
INDEX 01 00:00:00
FILE “Don’t Know How to Party – 1993\07 – The Mighty Mighty Bosstones – Illegal Left .wav” WAVE
TRACK 07 AUDIO
INDEX 01 00:00:00
TRACK 08 AUDIO
INDEX 00 03:11:18
FILE “Don’t Know How to Party – 1993\08 – The Mighty Mighty Bosstones – Tin Soldiers .wav” WAVE
INDEX 01 00:00:00
TRACK 09 AUDIO
INDEX 00 03:22:67
FILE “Don’t Know How to Party – 1993\09 – The Mighty Mighty Bosstones – Almost Anything Goes .wav” WAVE
INDEX 01 00:00:00
TRACK 10 AUDIO
INDEX 00 04:10:33
FILE “Don’t Know How to Party – 1993\10 – The Mighty Mighty Bosstones – Issachar .wav” WAVE
INDEX 01 00:00:00
TRACK 11 AUDIO
INDEX 00 03:46:15
FILE “Don’t Know How to Party – 1993\11 – The Mighty Mighty Bosstones – What Was Was Over .wav” WAVE
INDEX 01 00:00:00
TRACK 12 AUDIO
INDEX 00 02:59:05
FILE “Don’t Know How to Party – 1993\12 – The Mighty Mighty Bosstones – Seven Thirty Seven,Shoe Glue .wav” WAVE
INDEX 01 00:00:00


Leave a Reply

Your email address will not be published. Required fields are marked *

This site uses Akismet to reduce spam. Learn how your comment data is processed.