The Mighty Mighty Bosstones – Devils Night Out




Artist: The Mighty Mighty Bosstones
Year: 1990
Genre: Ska
Notes: Discogs
Add. Notes:
Cover incl.: Yes
Encoder: FLAC
Bitrate: ~1000 kBit/s (44.1 kHz/16 Bit/s)
Log & Cue incl.: Yes
Size: 186,64 MB
Password: “slam” (without ” “)


All Downloads/Hosters are compatible

Download 1
NitroFlare.com
KatFile.com
Turbobit.net
Rapidgator.net
UploadRar.com
Download 2
NitroFlare.com
KatFile.com
Turbobit.net
Rapidgator.net
UploadRar.com

Tracklist:

1 - Devils Night Out 
2 - Howwhy Wuz, Howwhywham 
3 - Drunks And Children 
4 - Hope I Never Lose My Wallet 
5 - Haji 
6 - The Bartenders Song 
7 - Patricia 
8 - The Cave (Cognito Fiesta Version 
9 - Do Somethin' Crazy 
10 - A Little Bit Ugly

EAC-Log, CUE-Sheed & NFO:

Click to open spoiler
Exact Audio Copy V0.99 prebeta 4 from 23. January 2008

EAC extraction logfile from 30. July 2008, 18:56

The Mighty Mighty Bosstones / Devil’s Night Out

Used drive : SONY DVD RW DRU-720A Adapter: 3 ID: 0

Read mode : Secure
Utilize accurate stream : Yes
Defeat audio cache : Yes
Make use of C2 pointers : No

Read offset correction : 12
Overread into Lead-In and Lead-Out : No
Fill up missing offset samples with silence : Yes
Delete leading and trailing silent blocks : No
Null samples used in CRC calculations : Yes
Used interface : Native Win32 interface for Win NT & 2000
Gap handling : Appended to previous track

Used output format : User Defined Encoder
Selected bitrate : 320 kBit/s
Quality : High
Add ID3 tag : No
Command line compressor : D:\Program Files\FLAC\flac.exe
Additional command line options : -V -8 -T “artist=%a” -T “title=%t” -T “album=%g” -T “date=%y” -T “tracknumber=%n” -T “genre=%m” %s

TOC of the extracted CD

Track | Start | Length | Start sector | End sector
———————————————————
1 | 0:00.00 | 2:35.25 | 0 | 11649
2 | 2:35.25 | 2:33.10 | 11650 | 23134
3 | 5:08.35 | 2:36.58 | 23135 | 34892
4 | 7:45.18 | 2:06.70 | 34893 | 44412
5 | 9:52.13 | 2:04.50 | 44413 | 53762
6 | 11:56.63 | 2:16.62 | 53763 | 64024
7 | 14:13.50 | 2:48.65 | 64025 | 76689
8 | 17:02.40 | 2:12.38 | 76690 | 86627
9 | 19:15.03 | 2:27.35 | 86628 | 97687
10 | 21:42.38 | 3:47.62 | 97688 | 114774

Track 1

Filename C:\EACRips\01 – Devil’s Night Out.wav

Pre-gap length 0:00:02.00

Peak level 97.8 %
Track quality 100.0 %
Test CRC 9BAD6CD0
Copy CRC 9BAD6CD0
Accurately ripped (confidence 7) [B2F6689B]
Copy OK

Track 2

Filename C:\EACRips\02 – Howwhywuz, Howwhyam.wav

Peak level 100.0 %
Track quality 100.0 %
Test CRC 697EB5BD
Copy CRC 697EB5BD
Accurately ripped (confidence 8) [481EE086]
Copy OK

Track 3

Filename C:\EACRips\03 – Drunks and Children.wav

Peak level 92.9 %
Track quality 100.0 %
Test CRC 08FC4669
Copy CRC 08FC4669
Accurately ripped (confidence 8) [C1B7D52F]
Copy OK

Track 4

Filename C:\EACRips\04 – Hope I Never Lose My Wallet.wav

Peak level 100.0 %
Track quality 100.0 %
Test CRC 1DE07175
Copy CRC 1DE07175
Accurately ripped (confidence 8) [D9C313C5]
Copy OK

Track 5

Filename C:\EACRips\05 – Haji.wav

Peak level 79.0 %
Track quality 100.0 %
Test CRC 8EF29893
Copy CRC 8EF29893
Accurately ripped (confidence 8) [9EB31B42]
Copy OK

Track 6

Filename C:\EACRips\06 – The Bartender’s Song.wav

Peak level 96.7 %
Track quality 99.9 %
Test CRC DA9CB195
Copy CRC DA9CB195
Accurately ripped (confidence 8) [18A5807B]
Copy OK

Track 7

Filename C:\EACRips\07 – Patricia.wav

Peak level 91.4 %
Track quality 100.0 %
Test CRC B74B87BF
Copy CRC B74B87BF
Accurately ripped (confidence 7) [47F43ADA]
Copy OK

Track 8

Filename C:\EACRips\08 – The Cave (Cognito Fiesta version).wav

Peak level 92.1 %
Track quality 99.9 %
Test CRC 5E35583E
Copy CRC 5E35583E
Accurately ripped (confidence 7) [7977A50B]
Copy OK

Track 9

Filename C:\EACRips\09 – Do Somethin’ Crazy.wav

Peak level 100.0 %
Track quality 100.0 %
Test CRC E2332E8D
Copy CRC E2332E8D
Accurately ripped (confidence 8) [5FF07176]
Copy OK

Track 10

Filename C:\EACRips\10 – A Little Bit Ugly.wav

Peak level 98.3 %
Track quality 99.9 %
Test CRC DCA3C7D7
Copy CRC DCA3C7D7
Accurately ripped (confidence 8) [1FDC3368]
Copy OK

All tracks accurately ripped

No errors occurred

End of status report

REM GENRE Unknown
REM DATE 1989
REM DISCID 7505FA0A
REM COMMENT “ExactAudioCopy v0.99pb4”
PERFORMER “The Mighty Mighty Bosstones”
TITLE “Devil’s Night Out”
FILE “01 – Devil’s Night Out.wav” WAVE
TRACK 01 AUDIO
TITLE “Devil’s Night Out”
PERFORMER “The Mighty Mighty Bosstones”
INDEX 01 00:00:00
FILE “02 – Howwhywuz, Howwhyam.wav” WAVE
TRACK 02 AUDIO
TITLE “Howwhywuz, Howwhyam”
PERFORMER “The Mighty Mighty Bosstones”
INDEX 01 00:00:00
FILE “03 – Drunks and Children.wav” WAVE
TRACK 03 AUDIO
TITLE “Drunks and Children”
PERFORMER “The Mighty Mighty Bosstones”
INDEX 01 00:00:00
FILE “04 – Hope I Never Lose My Wallet.wav” WAVE
TRACK 04 AUDIO
TITLE “Hope I Never Lose My Wallet”
PERFORMER “The Mighty Mighty Bosstones”
INDEX 01 00:00:00
FILE “05 – Haji.wav” WAVE
TRACK 05 AUDIO
TITLE “Haji”
PERFORMER “The Mighty Mighty Bosstones”
INDEX 01 00:00:00
FILE “06 – The Bartender’s Song.wav” WAVE
TRACK 06 AUDIO
TITLE “The Bartender’s Song”
PERFORMER “The Mighty Mighty Bosstones”
INDEX 01 00:00:00
FILE “07 – Patricia.wav” WAVE
TRACK 07 AUDIO
TITLE “Patricia”
PERFORMER “The Mighty Mighty Bosstones”
INDEX 01 00:00:00
FILE “08 – The Cave (Cognito Fiesta version).wav” WAVE
TRACK 08 AUDIO
TITLE “The Cave (Cognito Fiesta version)”
PERFORMER “The Mighty Mighty Bosstones”
INDEX 01 00:00:00
FILE “09 – Do Somethin’ Crazy.wav” WAVE
TRACK 09 AUDIO
TITLE “Do Somethin’ Crazy”
PERFORMER “The Mighty Mighty Bosstones”
INDEX 01 00:00:00
FILE “10 – A Little Bit Ugly.wav” WAVE
TRACK 10 AUDIO
TITLE “A Little Bit Ugly”
PERFORMER “The Mighty Mighty Bosstones”
INDEX 01 00:00:00


Leave a Reply

Your email address will not be published. Required fields are marked *

Enter the text from the image below
 

This site uses Akismet to reduce spam. Learn how your comment data is processed.