The Mighty Mighty Bosstones – A Jackknife To A Swan




Artist: The Mighty Mighty Bosstones
Year: 2002
Genre: Ska
Notes: Discogs
Add. Notes:
Cover incl.: Yes
Encoder: FLAC
Bitrate: ~1000 kBit/s (44.1 kHz/16 Bit/s)
Log & Cue incl.: Yes
Size: 294,28 MB
Password: “slam” (without ” “)


All Downloads/Hosters are compatible

Download 1
Turbobit.net
Rapidgator.net
UploadEver.com
KatFile.com
UsersDrive.com
Download 2
Turbobit.net
Rapidgator.net
UploadEver.com
KatFile.com
UsersDrive.com
Download 3
Turbobit.net
Rapidgator.net
UploadEver.com
KatFile.com
UsersDrive.com

Tracklist:

1 - A Jackknife To A Swan - 2:48
2 - Mr. Moran - 3:04
3 - You Gotta Go! - 2:42
4 - Everybody's Better - 3:41
5 - Sugar Free - 2:44
6 - I Want My City Back - 3:16
7 - You're Chasing The Sun Away - 3:28
8 - You Can't Win - 3:19
9 - The Old School Off The Bright - 2:26
10 - The Punch Line - 3:15
11 - Go Big - 2:52
12 - Shit Out Of Luck - 2:57
13 - Seven Ways To Sunday - 3:58

EAC-Log, CUE-Sheed & NFO:

Click to open spoiler
Exact Audio Copy V0.99 prebeta 4 from 23. January 2008

EAC extraction logfile from 13. January 2009, 17:39

The Mighty Mighty Bosstones / A Jackknife To A Swan

Used drive : BENQ DVD DD DW1620 Adapter: 0 ID: 0

Read mode : Secure
Utilize accurate stream : Yes
Defeat audio cache : Yes
Make use of C2 pointers : No

Read offset correction : 618
Overread into Lead-In and Lead-Out : No
Fill up missing offset samples with silence : Yes
Delete leading and trailing silent blocks : No
Null samples used in CRC calculations : Yes
Used interface : Native Win32 interface for Win NT & 2000
Gap handling : Appended to previous track

Used output format : User Defined Encoder
Selected bitrate : 128 kBit/s
Quality : High
Add ID3 tag : No
Command line compressor : C:\Program Files\Exact Audio Copy\Flac\flac.exe
Additional command line options : -V -8 -T “artist=%a” -T “title=%t” -T “album=%g” -T “date=%y” -T “tracknumber=%n” -T “genre=%m” %s

TOC of the extracted CD

Track | Start | Length | Start sector | End sector
———————————————————
1 | 0:00.00 | 2:48.26 | 0 | 12625
2 | 2:48.26 | 3:04.52 | 12626 | 26477
3 | 5:53.03 | 2:42.38 | 26478 | 38665
4 | 8:35.41 | 3:41.68 | 38666 | 55308
5 | 12:17.34 | 2:44.41 | 55309 | 67649
6 | 15:02.00 | 3:16.16 | 67650 | 82365
7 | 18:18.16 | 3:28.55 | 82366 | 98020
8 | 21:46.71 | 3:19.05 | 98021 | 112950
9 | 25:06.01 | 2:26.09 | 112951 | 123909
10 | 27:32.10 | 3:15.49 | 123910 | 138583
11 | 30:47.59 | 2:52.04 | 138584 | 151487
12 | 33:39.63 | 2:57.12 | 151488 | 164774
13 | 36:37.00 | 3:58.66 | 164775 | 182690

Track 1

Filename G:\Rips\FLAC\The Mighty Mighty Bosstones\A Jackknife To A Swan\01 – A Jackknife To A Swan.wav

Pre-gap length 0:00:02.00

Peak level 99.8 %
Track quality 99.9 %
Test CRC 47E9A688
Copy CRC 47E9A688
Accurately ripped (confidence 7) [A1CDC0E9]
Copy OK

Track 2

Filename G:\Rips\FLAC\The Mighty Mighty Bosstones\A Jackknife To A Swan\02 – Mr. Moran.wav

Peak level 99.8 %
Track quality 100.0 %
Test CRC B30A8996
Copy CRC B30A8996
Accurately ripped (confidence 7) [98E91F81]
Copy OK

Track 3

Filename G:\Rips\FLAC\The Mighty Mighty Bosstones\A Jackknife To A Swan\03 – You Gotta Go!.wav

Peak level 99.8 %
Track quality 100.0 %
Test CRC 156EAB75
Copy CRC 156EAB75
Accurately ripped (confidence 8) [80F277D8]
Copy OK

Track 4

Filename G:\Rips\FLAC\The Mighty Mighty Bosstones\A Jackknife To A Swan\04 – Everybody’s Better.wav

Pre-gap length 0:00:01.13

Peak level 99.8 %
Track quality 100.0 %
Test CRC 0250FD63
Copy CRC 0250FD63
Accurately ripped (confidence 8) [D0E8C12F]
Copy OK

Track 5

Filename G:\Rips\FLAC\The Mighty Mighty Bosstones\A Jackknife To A Swan\05 – Sugar Free.wav

Pre-gap length 0:00:00.34

Peak level 99.8 %
Track quality 100.0 %
Test CRC F6ACC530
Copy CRC F6ACC530
Accurately ripped (confidence 8) [E09DEC55]
Copy OK

Track 6

Filename G:\Rips\FLAC\The Mighty Mighty Bosstones\A Jackknife To A Swan\06 – I Want My City Back.wav

Pre-gap length 0:00:01.68

Peak level 99.8 %
Track quality 99.9 %
Test CRC 2EA5F50F
Copy CRC 2EA5F50F
Accurately ripped (confidence 7) [0F0A3140]
Copy OK

Track 7

Filename G:\Rips\FLAC\The Mighty Mighty Bosstones\A Jackknife To A Swan\07 – Chasing The Sun Away.wav

Pre-gap length 0:00:01.10

Peak level 99.8 %
Track quality 100.0 %
Test CRC EC348F29
Copy CRC EC348F29
Accurately ripped (confidence 8) [3DC0EB01]
Copy OK

Track 8

Filename G:\Rips\FLAC\The Mighty Mighty Bosstones\A Jackknife To A Swan\08 – You Can’t Win.wav

Peak level 99.8 %
Track quality 100.0 %
Test CRC C0B6FD4B
Copy CRC C0B6FD4B
Accurately ripped (confidence 7) [42DB46E3]
Copy OK

Track 9

Filename G:\Rips\FLAC\The Mighty Mighty Bosstones\A Jackknife To A Swan\09 – The Old School Off The Bright.wav

Pre-gap length 0:00:00.85

Peak level 99.8 %
Track quality 99.9 %
Test CRC AC2CEC76
Copy CRC AC2CEC76
Accurately ripped (confidence 8) [8C42B992]
Copy OK

Track 10

Filename G:\Rips\FLAC\The Mighty Mighty Bosstones\A Jackknife To A Swan\10 – The Punch Line.wav

Pre-gap length 0:00:01.25

Peak level 99.8 %
Track quality 100.0 %
Test CRC BB60EDE0
Copy CRC BB60EDE0
Accurately ripped (confidence 7) [82B67C0E]
Copy OK

Track 11

Filename G:\Rips\FLAC\The Mighty Mighty Bosstones\A Jackknife To A Swan\11 – Go Big.wav

Peak level 99.8 %
Track quality 100.0 %
Test CRC 95357826
Copy CRC 95357826
Accurately ripped (confidence 6) [7C810BA3]
Copy OK

Track 12

Filename G:\Rips\FLAC\The Mighty Mighty Bosstones\A Jackknife To A Swan\12 – Shit Outta Luck.wav

Pre-gap length 0:00:01.01

Peak level 99.8 %
Track quality 100.0 %
Test CRC 0482019A
Copy CRC 0482019A
Accurately ripped (confidence 8) [5F8CE45E]
Copy OK

Track 13

Filename G:\Rips\FLAC\The Mighty Mighty Bosstones\A Jackknife To A Swan\13 – 7-Ways To Sunday.wav

Pre-gap length 0:00:03.33

Peak level 99.8 %
Track quality 100.0 %
Test CRC D578B77E
Copy CRC D578B77E
Accurately ripped (confidence 8) [7614CD25]
Copy OK

All tracks accurately ripped

No errors occurred

End of status report

REM GENRE “Rock – Alternative”
REM DATE 2002
REM DISCID A009830D
REM COMMENT “ExactAudioCopy v0.99pb3”
PERFORMER “The Mighty Mighty Bosstones”
TITLE “A Jackknife To A Swan”
FILE “01 – The Mighty Mighty Bosstones – A Jackknife To A Swan.wav” WAVE
TRACK 01 AUDIO
TITLE “A Jackknife To A Swan”
PERFORMER “The Mighty Mighty Bosstones”
INDEX 01 00:00:00
FILE “02 – The Mighty Mighty Bosstones – Mr. Moran.wav” WAVE
TRACK 02 AUDIO
TITLE “Mr. Moran”
PERFORMER “The Mighty Mighty Bosstones”
FLAGS DCP
INDEX 01 00:00:00
FILE “03 – The Mighty Mighty Bosstones – You Gotta Go!.wav” WAVE
TRACK 03 AUDIO
TITLE “You Gotta Go!”
PERFORMER “The Mighty Mighty Bosstones”
FLAGS DCP
INDEX 01 00:00:00
TRACK 04 AUDIO
TITLE “Everybody’s Better”
PERFORMER “The Mighty Mighty Bosstones”
FLAGS DCP
INDEX 00 02:40:53
FILE “04 – The Mighty Mighty Bosstones – Everybody’s Better.wav” WAVE
INDEX 01 00:00:00
TRACK 05 AUDIO
TITLE “Sugar Free”
PERFORMER “The Mighty Mighty Bosstones”
FLAGS DCP
INDEX 00 03:41:11
FILE “05 – The Mighty Mighty Bosstones – Sugar Free.wav” WAVE
INDEX 01 00:00:00
TRACK 06 AUDIO
TITLE “I Want My City Back”
PERFORMER “The Mighty Mighty Bosstones”
FLAGS DCP
INDEX 00 02:43:17
FILE “06 – The Mighty Mighty Bosstones – I Want My City Back.wav” WAVE
INDEX 01 00:00:00
TRACK 07 AUDIO
TITLE “Chasing The Sun Away”
PERFORMER “The Mighty Mighty Bosstones”
FLAGS DCP
INDEX 00 03:14:64
FILE “07 – The Mighty Mighty Bosstones – Chasing The Sun Away.wav” WAVE
INDEX 01 00:00:00
TRACK 08 AUDIO
TITLE “You Can’t Win”
PERFORMER “The Mighty Mighty Bosstones”
FLAGS DCP
INDEX 00 03:28:51
FILE “08 – The Mighty Mighty Bosstones – You Can’t Win.wav” WAVE
INDEX 01 00:00:00
TRACK 09 AUDIO
TITLE “The Old School Off The Bright”
PERFORMER “The Mighty Mighty Bosstones”
FLAGS DCP
INDEX 00 03:17:67
FILE “09 – The Mighty Mighty Bosstones – The Old School Off The Bright.wav” WAVE
INDEX 01 00:00:00
TRACK 10 AUDIO
TITLE “The Punch Line”
PERFORMER “The Mighty Mighty Bosstones”
FLAGS DCP
INDEX 00 02:24:26
FILE “10 – The Mighty Mighty Bosstones – The Punch Line.wav” WAVE
INDEX 01 00:00:00
TRACK 11 AUDIO
TITLE “Go Big”
PERFORMER “The Mighty Mighty Bosstones”
FLAGS DCP
INDEX 00 03:14:30
FILE “11 – The Mighty Mighty Bosstones – Go Big.wav” WAVE
INDEX 01 00:00:00
TRACK 12 AUDIO
TITLE “Shit Outta Luck”
PERFORMER “The Mighty Mighty Bosstones”
FLAGS DCP
INDEX 00 02:51:52
FILE “12 – The Mighty Mighty Bosstones – Shit Outta Luck.wav” WAVE
INDEX 01 00:00:00
TRACK 13 AUDIO
TITLE “7-Ways To Sunday”
PERFORMER “The Mighty Mighty Bosstones”
FLAGS DCP
INDEX 00 02:54:39
FILE “13 – The Mighty Mighty Bosstones – 7-Ways To Sunday.wav” WAVE
INDEX 01 00:00:00

Leave a Reply

Your email address will not be published. Required fields are marked *

This site uses Akismet to reduce spam. Learn how your comment data is processed.