The Madness – The Madness




Artist: The Madness
Year: 1988
Genre: Ska
Notes: Discogs
Add. Notes:
Cover incl.: No
Encoder: FLAC
Bitrate: ~800 kBit/s (44.1 kHz/16 Bit/s)
Log & Cue incl.: Yes
Size: 352,32 MB
Password: “slam” (without ” “)


All Downloads/Hosters are compatible

Download 1
Turbobit.net
Rapidgator.net
KatFile.com
UploadRar.com
Download 2
Turbobit.net
Rapidgator.net
KatFile.com
UploadRar.com

Tracklist:

1 - Nail Down The Days - 4:33
2 - What's That - 3:33
3 - I Pronounce You - 4:38
4 - Oh - 3:57
5 - In Wonder - 4:58
6 - Song In Red - 3:38
7 - Nightmare Nightmare - 4:30
8 - Thunder & Lightning - 3:12
9 - Beat The Bride - 3:57
10 - Gabriel's Horn - 6:14
11 - 11th Hour - 4:31
12 - Be Good Boy - 4:25
13 - Flashings - 3:20
14 - 4.B.F. - 2:53

EAC-Log, CUE-Sheed & NFO:

Click to open spoiler
Exact Audio Copy V0.99 prebeta 4 from 23. January 2008

Отчёт EAC об извлечении, выполненном 18. марта 2008, 14:27

Madness / The Madness

Дисковод: Optiarc DVD RW AD-7173S Adapter: 3 ID: 0

Режим чтения : Достоверность
Использование точного потока : Да
Отключение кэша аудио : Да
Использование указателей C2 : Нет

Коррекция смещения при чтении : 48
Способность читать области Lead-in и Lead-out : Нет
Заполнение пропущенных сэмплов тишиной : Да
Удаление блоков с тишиной в начале и конце : Нет
При вычислениях CRC использовались нулевые сэмплы : Да
Интерфейс : Установленный внешний ASPI-интерфейс

Выходной формат : Пользовательский кодировщик
Выбранный битрейт : 320 kBit/s
Качество : Высокий
Добавление ID3-тэга : Нет
Утилита сжатия : C:\Program Files\Exact Audio Copy\FLAC\flac.exe
Дополнительные параметры : -T “artist=%a” -T “title=%t” -T “album=%g” -T “date=%y” -T “tracknumber=%n” -T “genre=%m” -5 %s

TOC извлечённого CD

Трек | Старт | Длительность | Начальный сектор | Конечный сектор
———————————————————————
1 | 0:00.50 | 4:33.52 | 50 | 20576
2 | 4:34.27 | 3:33.65 | 20577 | 36616
3 | 8:08.17 | 4:38.08 | 36617 | 57474
4 | 12:46.25 | 3:57.05 | 57475 | 75254
5 | 16:43.30 | 4:58.02 | 75255 | 97606
6 | 21:41.32 | 3:38.25 | 97607 | 113981
7 | 25:19.57 | 4:30.15 | 113982 | 134246
8 | 29:49.72 | 3:12.48 | 134247 | 148694
9 | 33:02.45 | 3:57.12 | 148695 | 166481
10 | 36:59.57 | 6:14.73 | 166482 | 194604
11 | 43:14.55 | 4:31.10 | 194605 | 214939
12 | 47:45.65 | 4:25.25 | 214940 | 234839
13 | 52:11.15 | 3:20.57 | 234840 | 249896
14 | 55:31.72 | 2:53.53 | 249897 | 262924

Характеристики диапазона извлечения и сообщения об ошибках

Выбранный диапазон

Имя файла D:\01 – Музыка\01 – LOSSLESS\Madness (FLAC)\Madness – The Madness.wav

Пиковый уровень 100.0 %
Качество диапазона 100.0 %
CRC копии 08D06784
Копирование… OK

Ошибок не произошло

AccurateRip: сводка

Трек 1 точное извлечение (доверие 5) [EB8D2204]
Трек 2 точное извлечение (доверие 5) [5A5736CB]
Трек 3 точное извлечение (доверие 5) [F27068FC]
Трек 4 точное извлечение (доверие 5) [A8E14D94]
Трек 5 точное извлечение (доверие 5) [0C87A549]
Трек 6 точное извлечение (доверие 5) [959DF351]
Трек 7 точное извлечение (доверие 5) [B26DCD46]
Трек 8 точное извлечение (доверие 5) [98168E3C]
Трек 9 точное извлечение (доверие 5) [00808637]
Трек 10 точное извлечение (доверие 5) [0A8C173F]
Трек 11 точное извлечение (доверие 5) [33B72493]
Трек 12 точное извлечение (доверие 5) [A69D99B8]
Трек 13 точное извлечение (доверие 5) [CF89808E]
Трек 14 точное извлечение (доверие 5) [B5F3A1E2]

Все треки извлечены точно

Конец отчёта

REM GENRE Ska
REM DATE 1988
REM DISCID BB0DB10E
REM COMMENT “ExactAudioCopy v0.99pb4”
PERFORMER “Madness”
TITLE “The Madness”
FILE “Madness – The Madness.flac” WAVE
TRACK 01 AUDIO
TITLE “Nail Down The Days”
PERFORMER “Madness”
INDEX 00 00:00:00
INDEX 01 00:00:50
TRACK 02 AUDIO
TITLE “What’s That”
PERFORMER “Madness”
INDEX 01 04:34:27
TRACK 03 AUDIO
TITLE “I Pronounce You”
PERFORMER “Madness”
INDEX 01 08:08:17
TRACK 04 AUDIO
TITLE “Oh”
PERFORMER “Madness”
INDEX 01 12:46:25
TRACK 05 AUDIO
TITLE “In Wonder”
PERFORMER “Madness”
INDEX 01 16:43:30
TRACK 06 AUDIO
TITLE “Song In Red”
PERFORMER “Madness”
INDEX 01 21:41:32
TRACK 07 AUDIO
TITLE “Nightmare, Nightmare”
PERFORMER “Madness”
INDEX 01 25:19:57
TRACK 08 AUDIO
TITLE “Thunder & Lightning”
PERFORMER “Madness”
INDEX 00 29:48:72
INDEX 01 29:49:72
TRACK 09 AUDIO
TITLE “Beat The Bride”
PERFORMER “Madness”
INDEX 01 33:02:45
TRACK 10 AUDIO
TITLE “Gabriel’s Horn”
PERFORMER “Madness”
INDEX 00 36:57:27
INDEX 01 36:59:57
TRACK 11 AUDIO
TITLE “11th Our”
PERFORMER “Madness”
INDEX 01 43:14:55
TRACK 12 AUDIO
TITLE “Be Good Boy”
PERFORMER “Madness”
INDEX 01 47:45:65
TRACK 13 AUDIO
TITLE “Flashings”
PERFORMER “Madness”
INDEX 01 52:11:15
TRACK 14 AUDIO
TITLE “4 B.F”
PERFORMER “Madness”
INDEX 01 55:31:72


Leave a Reply

Your email address will not be published. Required fields are marked *

This site uses Akismet to reduce spam. Learn how your comment data is processed.