The Killers – Sam’s Town (Limited Edition)




Artist: The Killers
Year: 2006
Genre: Rock
Notes: Discogs
Add. Notes: Limited Edition
Encoder: FLAC
Bitrate: ~900 kBit/s (44.1 kHz/16 Bit/s)
Size: 383,99 MB
Password: “slam” (without ” “)


http://www.share-online.biz/dl/7JFKLLRPCSK
https://rapidgator.net/file/04d81ec1a3839612be80b54444471913
https://hitfile.net/Kgo1467

Tracklist:

1-01 - Sam’s Town - 4:06
1-02 - Enterlude - 0:49
1-03 - When You Were Young - 3:40
1-04 - Bling (Confession Of A King) - 4:08
1-05 - For Reasons Unknown - 3:32
1-06 - Read My Mind - 4:06
1-07 - Uncle Jonny - 4:25
1-08 - Bones - 3:47
1-09 - My List - 4:08
1-10 - This River Is Wild - 4:38
1-11 - Why Do I Keep Counting? - 4:24
1-12 - Exitlude - 2:26
Best Buy Exclusive Bonus Disc
2-01 - All The Pretty Faces - 4:45
2-02 - Daddy’s Eyes - 4:13

EAC-Log, CUE-Sheed & NFO:

Click to open spoiler
EAC extraction logfile from 2. January 2009, 3:10 for CD
The Killers / Sam’s Town

Used drive : MATSHITADVD-RAM UJ-841S Adapter: 1 ID: 0
Read mode : Secure with NO C2, accurate stream, disable cache
Read offset correction : 102
Overread into Lead-In and Lead-Out : No

Used output format : C:\Program Files\Exact Audio Copy\flac.exe (User Defined Encoder)
192 kBit/s
Additional command line options : -8 -A tukey(0.25) -A gauss(0.1875) -b 4096 -V -T “artist=%a” -T “title=%t” -T “album=%g” -T “date=%y” -T “tracknumber=%n” -T “genre=%m” %s –sector-align

Other options :
Fill up missing offset samples with silence : Yes
Delete leading and trailing silent blocks : No
Installed external ASPI interface

Track 1
Filename C:\!Music\The Killers – Sam’s Town [Bonus Disc] FLAC\Disc 1\01 – Sam’s Town.wav

Pre-gap length 0:00:02.00

Peak level 99.9 %
Track quality 99.9 %
Test CRC 8B12366D
Copy CRC 8B12366D
Copy OK

Track 2
Filename C:\!Music\The Killers – Sam’s Town [Bonus Disc] FLAC\Disc 1\02 – Enterlude.wav

Peak level 99.9 %
Track quality 100.0 %
Test CRC 26B6FE0C
Copy CRC 26B6FE0C
Copy OK

Track 3
Filename C:\!Music\The Killers – Sam’s Town [Bonus Disc] FLAC\Disc 1\03 – When You Were Young.wav

Peak level 99.9 %
Track quality 100.0 %
Test CRC D8C2CC2B
Copy CRC D8C2CC2B
Copy OK

Track 4
Filename C:\!Music\The Killers – Sam’s Town [Bonus Disc] FLAC\Disc 1\04 – Bling (Confession of a King).wav

Peak level 100.0 %
Track quality 100.0 %
Test CRC 352BF59D
Copy CRC 352BF59D
Copy OK

Track 5
Filename C:\!Music\The Killers – Sam’s Town [Bonus Disc] FLAC\Disc 1\05 – For Reasons Unknown.wav

Peak level 100.0 %
Track quality 100.0 %
Test CRC FE0FED37
Copy CRC FE0FED37
Copy OK

Track 6
Filename C:\!Music\The Killers – Sam’s Town [Bonus Disc] FLAC\Disc 1\06 – Read My Mind.wav

Peak level 100.0 %
Track quality 100.0 %
Test CRC 373101BF
Copy CRC 373101BF
Copy OK

Track 7
Filename C:\!Music\The Killers – Sam’s Town [Bonus Disc] FLAC\Disc 1\07 – Uncle Jonny.wav

Peak level 99.9 %
Track quality 100.0 %
Test CRC 4E6826A6
Copy CRC 4E6826A6
Copy OK

Track 8
Filename C:\!Music\The Killers – Sam’s Town [Bonus Disc] FLAC\Disc 1\08 – Bones.wav

Peak level 99.9 %
Track quality 100.0 %
Test CRC 0AA85E8C
Copy CRC 0AA85E8C
Copy OK

Track 9
Filename C:\!Music\The Killers – Sam’s Town [Bonus Disc] FLAC\Disc 1\09 – My List.wav

Peak level 99.9 %
Track quality 100.0 %
Test CRC F3DE348B
Copy CRC F3DE348B
Copy OK

Track 10
Filename C:\!Music\The Killers – Sam’s Town [Bonus Disc] FLAC\Disc 1\10 – This River Is Wild.wav

Peak level 99.9 %
Track quality 100.0 %
Test CRC ACF5F87D
Copy CRC ACF5F87D
Copy OK

Track 11
Filename C:\!Music\The Killers – Sam’s Town [Bonus Disc] FLAC\Disc 1\11 – Why Do I Keep Counting .wav

Peak level 99.9 %
Track quality 100.0 %
Test CRC D32202EF
Copy CRC D32202EF
Copy OK

Track 12
Filename C:\!Music\The Killers – Sam’s Town [Bonus Disc] FLAC\Disc 1\12 – Exitlude.wav

Peak level 99.9 %
Track quality 100.0 %
Test CRC DF67EB39
Copy CRC DF67EB39
Copy OK

No errors occured

End of status report

EAC extraction logfile from 2. January 2009, 5:12 for CD
The Killers / Sam’s Town (Bonus Disc)

Used drive : MATSHITADVD-RAM UJ-841S Adapter: 1 ID: 0
Read mode : Secure with NO C2, accurate stream, disable cache
Read offset correction : 102
Overread into Lead-In and Lead-Out : No

Used output format : C:\Program Files\Exact Audio Copy\flac.exe (User Defined Encoder)
192 kBit/s
Additional command line options : -8 -A tukey(0.25) -A gauss(0.1875) -b 4096 -V -T “artist=%a” -T “title=%t” -T “album=%g” -T “date=%y” -T “tracknumber=%n” -T “genre=%m” %s –sector-align

Other options :
Fill up missing offset samples with silence : Yes
Delete leading and trailing silent blocks : No
Installed external ASPI interface

Track 1
Filename C:\!Music\The Killers – Sam’s Town [Bonus Disc] FLAC\Disc 2\01 – All the Pretty Faces.wav

Pre-gap length 0:00:02.00

Peak level 99.9 %
Track quality 100.0 %
Test CRC 65A0AA38
Copy CRC 65A0AA38
Copy OK

Track 2
Filename C:\!Music\The Killers – Sam’s Town [Bonus Disc] FLAC\Disc 2\02 – Daddy’s Eyes.wav

Peak level 99.9 %
Track quality 100.0 %
Test CRC 0C0984CB
Copy CRC 0C0984CB
Copy OK

No errors occured

End of status report

REM GENRE Unknown
REM DATE 2006
REM DISCID BA0A5E0C
REM COMMENT “ExactAudioCopy v0.95b4”
PERFORMER “The Killers”
TITLE “Sam’s Town”
FILE “01 – Sam’s Town.wav” WAVE
TRACK 01 AUDIO
TITLE “Sam’s Town”
PERFORMER “The Killers”
INDEX 01 00:00:00
FILE “02 – Enterlude.wav” WAVE
TRACK 02 AUDIO
TITLE “Enterlude”
PERFORMER “The Killers”
INDEX 01 00:00:00
FILE “03 – When You Were Young.wav” WAVE
TRACK 03 AUDIO
TITLE “When You Were Young”
PERFORMER “The Killers”
INDEX 01 00:00:00
FILE “04 – Bling (Confession of a King).wav” WAVE
TRACK 04 AUDIO
TITLE “Bling (Confession of a King)”
PERFORMER “The Killers”
INDEX 01 00:00:00
FILE “05 – For Reasons Unknown.wav” WAVE
TRACK 05 AUDIO
TITLE “For Reasons Unknown”
PERFORMER “The Killers”
INDEX 01 00:00:00
FILE “06 – Read My Mind.wav” WAVE
TRACK 06 AUDIO
TITLE “Read My Mind”
PERFORMER “The Killers”
INDEX 01 00:00:00
FILE “07 – Uncle Jonny.wav” WAVE
TRACK 07 AUDIO
TITLE “Uncle Jonny”
PERFORMER “The Killers”
INDEX 01 00:00:00
FILE “08 – Bones.wav” WAVE
TRACK 08 AUDIO
TITLE “Bones”
PERFORMER “The Killers”
INDEX 01 00:00:00
FILE “09 – My List.wav” WAVE
TRACK 09 AUDIO
TITLE “My List”
PERFORMER “The Killers”
INDEX 01 00:00:00
FILE “10 – This River Is Wild.wav” WAVE
TRACK 10 AUDIO
TITLE “This River Is Wild”
PERFORMER “The Killers”
INDEX 01 00:00:00
FILE “11 – Why Do I Keep Counting .wav” WAVE
TRACK 11 AUDIO
TITLE “Why Do I Keep Counting?”
PERFORMER “The Killers”
INDEX 01 00:00:00
FILE “12 – Exitlude.wav” WAVE
TRACK 12 AUDIO
TITLE “Exitlude”
PERFORMER “The Killers”
INDEX 01 00:00:00

REM GENRE Rock
REM DATE 2006
REM DISCID 13021B02
REM COMMENT “ExactAudioCopy v0.95b4”
PERFORMER “The Killers”
TITLE “Sam’s Town (Bonus Disc)”
FILE “01 – All the Pretty Faces.wav” WAVE
TRACK 01 AUDIO
TITLE “All the Pretty Faces”
PERFORMER “The Killers”
INDEX 01 00:00:00
FILE “02 – Daddy’s Eyes.wav” WAVE
TRACK 02 AUDIO
TITLE “Daddy’s Eyes”
PERFORMER “The Killers”
INDEX 01 00:00:00

Leave a Reply

Your email address will not be published. Required fields are marked *

This site uses Akismet to reduce spam. Learn how your comment data is processed.