The Killers – Live From The Royal Albert Hall




Artist: The Killers
Year: 2009
Genre: Rock
Notes: Discogs
Add. Notes:
Encoder: FLAC
Bitrate: ~1000 kBit/s (44.1 kHz/16 Bit/s)
Size: 568,36 MB
Password: “slam” (without ” “)


http://www.share-online.biz/dl/R1ILLLRPA69
http://www.share-online.biz/dl/JY7LLLRPO72V
https://rapidgator.net/file/34dc8f3e208dbe477f4db5173056c2aa
https://rapidgator.net/file/5642208437a3346d506a534f9c501fd7
https://hitfile.net/cdsSFtH
https://hitfile.net/uDa8JGk

Tracklist:

1 - Human - 5:29
2 - This Is Your Life - 3:38
3 - Somebody Told Me - 3:21
4 - The World We Live In - 4:24
5 - I Can't Stay - 4:51
6 - Bling (Confessions Of A King) - 6:28
7 - Shadowplay - 4:04
8 - Smile Like You Mean It - 4:18
9 - Losing Touch - 4:10
10 - Spaceman - 5:24
11 - A Dustland Fairytale - 4:57
12 - Sam's Town (Acoustic) - 4:03
13 - Read My Mind - 4:22
14 - Mr. Brightside - 3:53
15 - All These Things That I've Done - 5:55
16 - Jenny Was A Friend Of Mine - 4:27
17 - When You Were Young - 4:43

EAC-Log, CUE-Sheed & NFO:

Click to open spoiler
Exact Audio Copy V0.99 prebeta 5 from 4. May 2009

EAC extraction logfile from 10. November 2009, 11:27

The Killers / Live From The Royal Albert Hall

Used drive : TSSTcorpCD/DVDW TS-H652L Adapter: 5 ID: 0

Read mode : Secure
Utilize accurate stream : Yes
Defeat audio cache : Yes
Make use of C2 pointers : No

Read offset correction : 6
Overread into Lead-In and Lead-Out : No
Fill up missing offset samples with silence : Yes
Delete leading and trailing silent blocks : No
Null samples used in CRC calculations : Yes
Used interface : Native Win32 interface for Win NT & 2000
Gap handling : Appended to previous track

Used output format : User Defined Encoder
Selected bitrate : 128 kBit/s
Quality : High
Add ID3 tag : No
Command line compressor : C:\Program Files\Exact Audio Copy\Flac\flac.exe
Additional command line options : -V -8 -T “artist=%a” -T “title=%t” -T “album=%g” -T “date=%y” -T “tracknumber=%n” -T “genre=%m” %s

TOC of the extracted CD

Track | Start | Length | Start sector | End sector
———————————————————
1 | 0:00.13 | 5:28.67 | 13 | 24679
2 | 5:29.05 | 3:38.21 | 24680 | 41050
3 | 9:07.26 | 3:20.70 | 41051 | 56120
4 | 12:28.21 | 4:23.58 | 56121 | 75903
5 | 16:52.04 | 4:50.48 | 75904 | 97701
6 | 21:42.52 | 6:27.55 | 97702 | 126781
7 | 28:10.32 | 4:04.35 | 126782 | 145116
8 | 32:14.67 | 4:17.50 | 145117 | 164441
9 | 36:32.42 | 4:10.10 | 164442 | 183201
10 | 40:42.52 | 5:23.70 | 183202 | 207496
11 | 46:06.47 | 4:57.00 | 207497 | 229771
12 | 51:03.47 | 4:02.74 | 229772 | 247995
13 | 55:06.46 | 4:22.17 | 247996 | 267662
14 | 59:28.63 | 3:53.33 | 267663 | 285170
15 | 63:22.21 | 5:54.44 | 285171 | 311764
16 | 69:16.65 | 4:27.21 | 311765 | 331810
17 | 73:44.11 | 4:43.29 | 331811 | 353064

Track 1

Filename L:\The Killers ~ Live From The Royal Albert Hall [FLAC]-2009\01 – Human.wav

Pre-gap length 0:00:02.17

Peak level 100.0 %
Track quality 100.0 %
Test CRC CA7BE62F
Copy CRC CA7BE62F
Track not present in AccurateRip database
Copy OK

Track 2

Filename L:\The Killers ~ Live From The Royal Albert Hall [FLAC]-2009\02 – This Is Your Life.wav

Peak level 100.0 %
Track quality 100.0 %
Test CRC CF27B622
Copy CRC CF27B622
Track not present in AccurateRip database
Copy OK

Track 3

Filename L:\The Killers ~ Live From The Royal Albert Hall [FLAC]-2009\03 – Somebody Told Me.wav

Peak level 100.0 %
Track quality 100.0 %
Test CRC D11F5E85
Copy CRC D11F5E85
Track not present in AccurateRip database
Copy OK

Track 4

Filename L:\The Killers ~ Live From The Royal Albert Hall [FLAC]-2009\04 – The World We Live In.wav

Peak level 100.0 %
Track quality 100.0 %
Test CRC C0B590B8
Copy CRC C0B590B8
Track not present in AccurateRip database
Copy OK

Track 5

Filename L:\The Killers ~ Live From The Royal Albert Hall [FLAC]-2009\05 – I Can’t Stay.wav

Peak level 100.0 %
Track quality 100.0 %
Test CRC 5B43BE9F
Copy CRC 5B43BE9F
Track not present in AccurateRip database
Copy OK

Track 6

Filename L:\The Killers ~ Live From The Royal Albert Hall [FLAC]-2009\06 – Bling (Confession of a King).wav

Peak level 100.0 %
Track quality 100.0 %
Test CRC E4056900
Copy CRC E4056900
Track not present in AccurateRip database
Copy OK

Track 7

Filename L:\The Killers ~ Live From The Royal Albert Hall [FLAC]-2009\07 – Shadowplay.wav

Peak level 100.0 %
Track quality 100.0 %
Test CRC AEC69CED
Copy CRC AEC69CED
Track not present in AccurateRip database
Copy OK

Track 8

Filename L:\The Killers ~ Live From The Royal Albert Hall [FLAC]-2009\08 – Smile Like You Mean It.wav

Peak level 100.0 %
Track quality 99.9 %
Test CRC 7F661518
Copy CRC 7F661518
Track not present in AccurateRip database
Copy OK

Track 9

Filename L:\The Killers ~ Live From The Royal Albert Hall [FLAC]-2009\09 – Losing Touch.wav

Peak level 100.0 %
Track quality 100.0 %
Test CRC 266E2EBA
Copy CRC 266E2EBA
Track not present in AccurateRip database
Copy OK

Track 10

Filename L:\The Killers ~ Live From The Royal Albert Hall [FLAC]-2009\10 – Spaceman.wav

Peak level 100.0 %
Track quality 100.0 %
Test CRC 29CBF7FB
Copy CRC 29CBF7FB
Track not present in AccurateRip database
Copy OK

Track 11

Filename L:\The Killers ~ Live From The Royal Albert Hall [FLAC]-2009\11 – A Dustland Fairytale.wav

Peak level 100.0 %
Track quality 100.0 %
Test CRC A6BB30D3
Copy CRC A6BB30D3
Track not present in AccurateRip database
Copy OK

Track 12

Filename L:\The Killers ~ Live From The Royal Albert Hall [FLAC]-2009\12 – Sam’s Town (Acoustic).wav

Peak level 100.0 %
Track quality 100.0 %
Test CRC 949015DA
Copy CRC 949015DA
Track not present in AccurateRip database
Copy OK

Track 13

Filename L:\The Killers ~ Live From The Royal Albert Hall [FLAC]-2009\13 – Read My Mind.wav

Peak level 100.0 %
Track quality 100.0 %
Test CRC 39B9CFC1
Copy CRC 39B9CFC1
Track not present in AccurateRip database
Copy OK

Track 14

Filename L:\The Killers ~ Live From The Royal Albert Hall [FLAC]-2009\14 – Mr. Brightside.wav

Peak level 100.0 %
Track quality 99.9 %
Test CRC BF951120
Copy CRC BF951120
Track not present in AccurateRip database
Copy OK

Track 15

Filename L:\The Killers ~ Live From The Royal Albert Hall [FLAC]-2009\15 – All These Things That I’ve Done.wav

Peak level 100.0 %
Track quality 100.0 %
Test CRC 521A91BC
Copy CRC 521A91BC
Track not present in AccurateRip database
Copy OK

Track 16

Filename L:\The Killers ~ Live From The Royal Albert Hall [FLAC]-2009\16 – Jenny Was a Friend of Mine.wav

Peak level 100.0 %
Track quality 99.9 %
Test CRC 66178700
Copy CRC 66178700
Track not present in AccurateRip database
Copy OK

Track 17

Filename L:\The Killers ~ Live From The Royal Albert Hall [FLAC]-2009\17 – When You Were Young.wav

Peak level 100.0 %
Track quality 100.0 %
Test CRC 91F02F88
Copy CRC 91F02F88
Track not present in AccurateRip database
Copy OK

None of the tracks are present in the AccurateRip database

No errors occurred

End of status report

REM GENRE Alternative
REM DATE 2009
REM DISCID EB126311
REM COMMENT “ExactAudioCopy v0.99pb5”
PERFORMER “The Killers”
TITLE “Live From The Royal Albert Hall”
FILE “01 – Human.wav” WAVE
TRACK 01 AUDIO
TITLE “Human”
PERFORMER “The Killers”
PREGAP 00:00:13
INDEX 01 00:00:00
FILE “02 – This Is Your Life.wav” WAVE
TRACK 02 AUDIO
TITLE “This Is Your Life”
PERFORMER “The Killers”
INDEX 01 00:00:00
FILE “03 – Somebody Told Me.wav” WAVE
TRACK 03 AUDIO
TITLE “Somebody Told Me”
PERFORMER “The Killers”
INDEX 01 00:00:00
FILE “04 – The World We Live In.wav” WAVE
TRACK 04 AUDIO
TITLE “The World We Live In”
PERFORMER “The Killers”
INDEX 01 00:00:00
FILE “05 – I Can’t Stay.wav” WAVE
TRACK 05 AUDIO
TITLE “I Can’t Stay”
PERFORMER “The Killers”
INDEX 01 00:00:00
FILE “06 – Bling (Confession of a King).wav” WAVE
TRACK 06 AUDIO
TITLE “Bling (Confession of a King)”
PERFORMER “The Killers”
INDEX 01 00:00:00
FILE “07 – Shadowplay.wav” WAVE
TRACK 07 AUDIO
TITLE “Shadowplay”
PERFORMER “The Killers”
INDEX 01 00:00:00
FILE “08 – Smile Like You Mean It.wav” WAVE
TRACK 08 AUDIO
TITLE “Smile Like You Mean It”
PERFORMER “The Killers”
INDEX 01 00:00:00
FILE “09 – Losing Touch.wav” WAVE
TRACK 09 AUDIO
TITLE “Losing Touch”
PERFORMER “The Killers”
INDEX 01 00:00:00
FILE “10 – Spaceman.wav” WAVE
TRACK 10 AUDIO
TITLE “Spaceman”
PERFORMER “The Killers”
INDEX 01 00:00:00
FILE “11 – A Dustland Fairytale.wav” WAVE
TRACK 11 AUDIO
TITLE “A Dustland Fairytale”
PERFORMER “The Killers”
INDEX 01 00:00:00
FILE “12 – Sam’s Town (Acoustic).wav” WAVE
TRACK 12 AUDIO
TITLE “Sam’s Town (Acoustic)”
PERFORMER “The Killers”
INDEX 01 00:00:00
FILE “13 – Read My Mind.wav” WAVE
TRACK 13 AUDIO
TITLE “Read My Mind”
PERFORMER “The Killers”
INDEX 01 00:00:00
FILE “14 – Mr. Brightside.wav” WAVE
TRACK 14 AUDIO
TITLE “Mr. Brightside”
PERFORMER “The Killers”
INDEX 01 00:00:00
FILE “15 – All These Things That I’ve Done.wav” WAVE
TRACK 15 AUDIO
TITLE “All These Things That I’ve Done”
PERFORMER “The Killers”
INDEX 01 00:00:00
FILE “16 – Jenny Was a Friend of Mine.wav” WAVE
TRACK 16 AUDIO
TITLE “Jenny Was a Friend of Mine”
PERFORMER “The Killers”
INDEX 01 00:00:00
FILE “17 – When You Were Young.wav” WAVE
TRACK 17 AUDIO
TITLE “When You Were Young”
PERFORMER “The Killers”
INDEX 01 00:00:00

Leave a Reply

Your email address will not be published. Required fields are marked *

This site uses Akismet to reduce spam. Learn how your comment data is processed.