The Killers – Hot Fuss




Artist: The Killers
Year: 2004
Genre: Rock
Notes: Discogs
Add. Notes:
Encoder: FLAC
Bitrate: ~1000 kBit/s (44.1 kHz/16 Bit/s)
Size: 331,44 MB
Password: “slam” (without ” “)


http://www.share-online.biz/dl/172KLLRPRY7
https://rapidgator.net/file/398c3e7ed4745ce6517098209c2c08e0
https://ayefiles.com/sfdmukujtto0/TheKil-2004-HotFusOri.rar.html
https://hitfile.net/uDqPRjW

Tracklist:

1 - Jenny Was A Friend Of Mine - 4:04
2 - Mr. Brightside - 3:43
3 - Smile Like You Mean It - 3:54
4 - Somebody Told Me - 3:18
5 - All These Things That I've Done - 5:02
6 - Andy, You're A Star - 3:14
7 - On Top - 4:19
8 - Change Your Mind - 3:11
9 - Believe Me Natalie - 5:07
10 - Midnight Show - 4:03
11 - Everything Will Be Alright - 5:45

EAC-Log, CUE-Sheed & NFO:

Click to open spoiler
Exact Audio Copy V0.99 prebeta 5 from 4. May 2009

EAC extraction logfile from 12. August 2009, 20:53

The Killers / Hot Fuss

Used drive : PIONEER DVD-RW DVRKD08A Adapter: 2 ID: 0

Read mode : Secure
Utilize accurate stream : Yes
Defeat audio cache : Yes
Make use of C2 pointers : No

Read offset correction : 48
Overread into Lead-In and Lead-Out : No
Fill up missing offset samples with silence : Yes
Delete leading and trailing silent blocks : No
Null samples used in CRC calculations : Yes
Used interface : Native Win32 interface for Win NT & 2000
Gap handling : Appended to previous track

Used output format : User Defined Encoder
Selected bitrate : 1024 kBit/s
Quality : High
Add ID3 tag : No
Command line compressor : C:\Program Files\FLAC\flac.exe
Additional command line options : -V -8 -T “artist=%a” -T “title=%t” -T “album=%g” -T “date=%y” -T “tracknumber=%n” -T “genre=%m” %s

TOC of the extracted CD

Track | Start | Length | Start sector | End sector
———————————————————
1 | 0:00.00 | 4:04.39 | 0 | 18338
2 | 4:04.39 | 3:42.44 | 18339 | 35032
3 | 7:47.08 | 3:54.46 | 35033 | 52628
4 | 11:41.54 | 3:17.12 | 52629 | 67415
5 | 14:58.66 | 5:01.72 | 67416 | 90062
6 | 20:00.63 | 3:14.06 | 90063 | 104618
7 | 23:14.69 | 4:18.74 | 104619 | 124042
8 | 27:33.68 | 3:10.63 | 124043 | 138355
9 | 30:44.56 | 5:06.50 | 138356 | 161355
10 | 35:51.31 | 4:02.73 | 161356 | 179578
11 | 39:54.29 | 5:45.19 | 179579 | 205472

Track 1

Filename C:\Users\Beth\Seeding\The Killers – Hot Fuss\01 – Jenny Was a Friend of Mine.wav

Pre-gap length 0:00:02.00

Peak level 98.8 %
Track quality 100.0 %
Test CRC C1212D9C
Copy CRC C1212D9C
Accurately ripped (confidence 200) [668E393F]
Copy OK

Track 2

Filename C:\Users\Beth\Seeding\The Killers – Hot Fuss\02 – Mr. Brightside.wav

Pre-gap length 0:00:00.58

Peak level 89.4 %
Track quality 100.0 %
Test CRC 16A91680
Copy CRC 16A91680
Accurately ripped (confidence 200) [D175EBE4]
Copy OK

Track 3

Filename C:\Users\Beth\Seeding\The Killers – Hot Fuss\03 – Smile Like You Mean It.wav

Peak level 95.4 %
Track quality 100.0 %
Test CRC B0AAFE66
Copy CRC B0AAFE66
Accurately ripped (confidence 200) [7BE7CE23]
Copy OK

Track 4

Filename C:\Users\Beth\Seeding\The Killers – Hot Fuss\04 – Somebody Told Me.wav

Pre-gap length 0:00:00.50

Peak level 98.8 %
Track quality 100.0 %
Test CRC DE7ADF8F
Copy CRC DE7ADF8F
Accurately ripped (confidence 200) [6874EB62]
Copy OK

Track 5

Filename C:\Users\Beth\Seeding\The Killers – Hot Fuss\05 – All These Things That I’ve Done.wav

Peak level 98.8 %
Track quality 100.0 %
Test CRC B2A852F3
Copy CRC B2A852F3
Accurately ripped (confidence 200) [85B9EA09]
Copy OK

Track 6

Filename C:\Users\Beth\Seeding\The Killers – Hot Fuss\06 – Andy, You’re a Star.wav

Pre-gap length 0:00:00.38

Peak level 98.8 %
Track quality 100.0 %
Test CRC E2A91F3A
Copy CRC E2A91F3A
Accurately ripped (confidence 200) [7403D0B8]
Copy OK

Track 7

Filename C:\Users\Beth\Seeding\The Killers – Hot Fuss\07 – On Top.wav

Peak level 96.2 %
Track quality 99.9 %
Test CRC 11CD735E
Copy CRC 11CD735E
Accurately ripped (confidence 200) [74A525B5]
Copy OK

Track 8

Filename C:\Users\Beth\Seeding\The Killers – Hot Fuss\08 – Change Your Mind.wav

Peak level 98.8 %
Track quality 100.0 %
Test CRC A68C1495
Copy CRC A68C1495
Accurately ripped (confidence 200) [C3A32404]
Copy OK

Track 9

Filename C:\Users\Beth\Seeding\The Killers – Hot Fuss\09 – Believe Me Natalie.wav

Peak level 98.8 %
Track quality 100.0 %
Test CRC 4C7FBF30
Copy CRC 4C7FBF30
Accurately ripped (confidence 200) [2608F63C]
Copy OK

Track 10

Filename C:\Users\Beth\Seeding\The Killers – Hot Fuss\10 – Midnight Show.wav

Peak level 98.8 %
Track quality 100.0 %
Test CRC A59250C7
Copy CRC A59250C7
Accurately ripped (confidence 200) [B4C29B96]
Copy OK

Track 11

Filename C:\Users\Beth\Seeding\The Killers – Hot Fuss\11 – Everything Will Be Alright.wav

Peak level 98.8 %
Track quality 100.0 %
Test CRC 22A8D0DF
Copy CRC 22A8D0DF
Accurately ripped (confidence 200) [8F6911DA]
Copy OK

All tracks accurately ripped

No errors occurred

End of status report

REM GENRE Rock
REM DATE 2004
REM DISCID 8F0AB30B
REM COMMENT “ExactAudioCopy v0.99pb5”
FILE “The Killers – Hot Fuss\01 – Jenny Was a Friend of Mine.wav” WAVE
TRACK 01 AUDIO
INDEX 01 00:00:00
TRACK 02 AUDIO
INDEX 00 04:03:70
FILE “The Killers – Hot Fuss\02 – Mr. Brightside.wav” WAVE
INDEX 01 00:00:00
FILE “The Killers – Hot Fuss\03 – Smile Like You Mean It.wav” WAVE
TRACK 03 AUDIO
INDEX 01 00:00:00
TRACK 04 AUDIO
INDEX 00 03:54:08
FILE “The Killers – Hot Fuss\04 – Somebody Told Me.wav” WAVE
INDEX 01 00:00:00
FILE “The Killers – Hot Fuss\05 – All These Things That I’ve Done.wav” WAVE
TRACK 05 AUDIO
INDEX 01 00:00:00
TRACK 06 AUDIO
INDEX 00 05:01:43
FILE “The Killers – Hot Fuss\06 – Andy, You’re a Star.wav” WAVE
INDEX 01 00:00:00
FILE “The Killers – Hot Fuss\07 – On Top.wav” WAVE
TRACK 07 AUDIO
INDEX 01 00:00:00
FILE “The Killers – Hot Fuss\08 – Change Your Mind.wav” WAVE
TRACK 08 AUDIO
INDEX 01 00:00:00
FILE “The Killers – Hot Fuss\09 – Believe Me Natalie.wav” WAVE
TRACK 09 AUDIO
INDEX 01 00:00:00
FILE “The Killers – Hot Fuss\10 – Midnight Show.wav” WAVE
TRACK 10 AUDIO
INDEX 01 00:00:00
FILE “The Killers – Hot Fuss\11 – Everything Will Be Alright.wav” WAVE
TRACK 11 AUDIO
INDEX 01 00:00:00

Leave a Reply

Your email address will not be published. Required fields are marked *

Enter the text from the image below
 

This site uses Akismet to reduce spam. Learn how your comment data is processed.