The Killers – Hot Fuss (Limited Edition)




Artist: The Killers
Year: 2004
Genre: Rock
Notes: Discogs
Add. Notes: Limited Edition
Cover incl.: Yes
Encoder: FLAC
Bitrate: ~1100 kBit/s (44.1 kHz/16 Bit/s)
Log & Cue incl.: Yes
Size: 413,64 MB
Password: “slam” (without ” “)


All Downloads/Hosters are compatible

Download 1
Turbobit.net
Rapidgator.net
Download 2
Turbobit.net
Rapidgator.net
Download 3
Turbobit.net
Rapidgator.net

Tracklist:

1 - Jenny Was A Friend Of Mine - 4:04
2 - Mr. Brightside - 3:43
3 - Smile Like You Mean It - 3:54
4 - Somebody Told Me - 3:18
5 - All These Things That I've Done - 5:02
6 - Andy, You're A Star - 3:14
7 - On Top - 4:19
8 - Change Your Mind - 3:11
9 - Believe Me Natalie - 5:07
10 - Midnight Show - 4:03
11 - Everything Will Be Alright - 5:45
12 - Glamorous Indie Rock & Roll - 4:15
13 - The Ballad Of Michael Valentine - 3:50
14 - Under The Gun - 2:33

EAC-Log, CUE-Sheed & NFO:

Click to open spoiler
EAC extraction logfile from 18. August 2005, 20:53 for CD
The Killers / Hot Fuss

Used drive : PLEXTOR DVDR PX-708A Adapter: 1 ID: 0
Read mode : Secure with NO C2, accurate stream, disable cache
Read offset correction : 30
Overread into Lead-In and Lead-Out : Yes

Used output format : Internal WAV Routines
44.100 Hz; 16 Bit; Stereo

Other options :
Fill up missing offset samples with silence : Yes
Delete leading and trailing silent blocks : No
Installed external ASPI interface

Track 1
Filename F:\FLAC Music\The Killers – Hot Fuss (Limited Edition) (2005) [FLAC]\01 – Jenny Was a Friend of Mine.wav

Pre-gap length 0:00:02.00

Peak level 98.8 %
Track quality 100.0 %
Test CRC A09F9AC1
Copy CRC A09F9AC1
Copy OK

Track 2
Filename F:\FLAC Music\The Killers – Hot Fuss (Limited Edition) (2005) [FLAC]\02 – Mr. Brightside.wav

Pre-gap length 0:00:00.20

Peak level 89.4 %
Track quality 100.0 %
Test CRC 8531641C
Copy CRC 8531641C
Copy OK

Track 3
Filename F:\FLAC Music\The Killers – Hot Fuss (Limited Edition) (2005) [FLAC]\03 – Smile Like You Mean It.wav

Peak level 95.4 %
Track quality 100.0 %
Test CRC 6EDC8062
Copy CRC 6EDC8062
Copy OK

Track 4
Filename F:\FLAC Music\The Killers – Hot Fuss (Limited Edition) (2005) [FLAC]\04 – Somebody Told Me.wav

Pre-gap length 0:00:00.50

Peak level 98.8 %
Track quality 100.0 %
Test CRC C1BC6782
Copy CRC C1BC6782
Copy OK

Track 5
Filename F:\FLAC Music\The Killers – Hot Fuss (Limited Edition) (2005) [FLAC]\05 – All These Things That I’ve Done.wav

Peak level 100.0 %
Track quality 100.0 %
Test CRC DEF68B07
Copy CRC DEF68B07
Copy OK

Track 6
Filename F:\FLAC Music\The Killers – Hot Fuss (Limited Edition) (2005) [FLAC]\06 – Andy, You’re a Star.wav

Pre-gap length 0:00:00.05

Peak level 98.8 %
Track quality 100.0 %
Test CRC E2A91F3A
Copy CRC E2A91F3A
Copy OK

Track 7
Filename F:\FLAC Music\The Killers – Hot Fuss (Limited Edition) (2005) [FLAC]\07 – On Top.wav

Peak level 96.2 %
Track quality 100.0 %
Test CRC BAE59A0D
Copy CRC BAE59A0D
Copy OK

Track 8
Filename F:\FLAC Music\The Killers – Hot Fuss (Limited Edition) (2005) [FLAC]\08 – Change Your Mind.wav

Peak level 98.8 %
Track quality 100.0 %
Test CRC A9F3FD45
Copy CRC A9F3FD45
Copy OK

Track 9
Filename F:\FLAC Music\The Killers – Hot Fuss (Limited Edition) (2005) [FLAC]\09 – Believe Me Natalie.wav

Peak level 98.8 %
Track quality 100.0 %
Test CRC 8236E399
Copy CRC 8236E399
Copy OK

Track 10
Filename F:\FLAC Music\The Killers – Hot Fuss (Limited Edition) (2005) [FLAC]\10 – Midnight Show.wav

Peak level 98.8 %
Track quality 100.0 %
Test CRC 57ABFE97
Copy CRC 57ABFE97
Copy OK

Track 11
Filename F:\FLAC Music\The Killers – Hot Fuss (Limited Edition) (2005) [FLAC]\11 – Everything Will Be Alright.wav

Peak level 98.8 %
Track quality 100.0 %
Test CRC CC4EE77F
Copy CRC CC4EE77F
Copy OK

Track 12
Filename F:\FLAC Music\The Killers – Hot Fuss (Limited Edition) (2005) [FLAC]\12 – Glamorous Indie Rock & Roll.wav

Pre-gap length 0:00:00.06

Peak level 98.8 %
Track quality 100.0 %
Test CRC 7319F91C
Copy CRC 7319F91C
Copy OK

Track 13
Filename F:\FLAC Music\The Killers – Hot Fuss (Limited Edition) (2005) [FLAC]\13 – The Ballad of Michael Valentine.wav

Pre-gap length 0:00:00.14

Peak level 98.8 %
Track quality 100.0 %
Test CRC 396E3DA4
Copy CRC 396E3DA4
Copy OK

Track 14
Filename F:\FLAC Music\The Killers – Hot Fuss (Limited Edition) (2005) [FLAC]\14 – Under the Gun.wav

Pre-gap length 0:00:00.10

Peak level 98.8 %
Track quality 100.0 %
Test CRC 71B2B035
Copy CRC 71B2B035
Copy OK

No errors occured

End of status report

REM GENRE Rock
REM DATE 2005
REM DISCID C60D320E
REM COMMENT “ExactAudioCopy v0.95b2”
PERFORMER “The Killers”
TITLE “Hot Fuss”
FILE “01 – Jenny Was a Friend of Mine.wav” WAVE
TRACK 01 AUDIO
TITLE “Jenny Was a Friend of Mine”
PERFORMER “The Killers”
INDEX 01 00:00:00
TRACK 02 AUDIO
TITLE “Mr. Brightside”
PERFORMER “The Killers”
INDEX 00 04:03:70
FILE “02 – Mr. Brightside.wav” WAVE
INDEX 01 00:00:00
FILE “03 – Smile Like You Mean It.wav” WAVE
TRACK 03 AUDIO
TITLE “Smile Like You Mean It”
PERFORMER “The Killers”
INDEX 01 00:00:00
TRACK 04 AUDIO
TITLE “Somebody Told Me”
PERFORMER “The Killers”
INDEX 00 03:54:08
FILE “04 – Somebody Told Me.wav” WAVE
INDEX 01 00:00:00
FILE “05 – All These Things That I’ve Done.wav” WAVE
TRACK 05 AUDIO
TITLE “All These Things That I’ve Done”
PERFORMER “The Killers”
INDEX 01 00:00:00
TRACK 06 AUDIO
TITLE “Andy, You’re a Star”
PERFORMER “The Killers”
INDEX 00 05:01:65
FILE “06 – Andy, You’re a Star.wav” WAVE
INDEX 01 00:00:00
FILE “07 – On Top.wav” WAVE
TRACK 07 AUDIO
TITLE “On Top”
PERFORMER “The Killers”
INDEX 01 00:00:00
FILE “08 – Change Your Mind.wav” WAVE
TRACK 08 AUDIO
TITLE “Change Your Mind”
PERFORMER “The Killers”
INDEX 01 00:00:00
FILE “09 – Believe Me Natalie.wav” WAVE
TRACK 09 AUDIO
TITLE “Believe Me Natalie”
PERFORMER “The Killers”
INDEX 01 00:00:00
FILE “10 – Midnight Show.wav” WAVE
TRACK 10 AUDIO
TITLE “Midnight Show”
PERFORMER “The Killers”
INDEX 01 00:00:00
FILE “11 – Everything Will Be Alright.wav” WAVE
TRACK 11 AUDIO
TITLE “Everything Will Be Alright”
PERFORMER “The Killers”
INDEX 01 00:00:00
TRACK 12 AUDIO
TITLE “Glamorous Indie Rock & Roll”
PERFORMER “The Killers”
INDEX 00 05:44:68
FILE “12 – Glamorous Indie Rock & Roll.wav” WAVE
INDEX 01 00:00:00
TRACK 13 AUDIO
TITLE “The Ballad of Michael Valentine”
PERFORMER “The Killers”
INDEX 00 04:16:29
FILE “13 – The Ballad of Michael Valentine.wav” WAVE
INDEX 01 00:00:00
TRACK 14 AUDIO
TITLE “Under the Gun”
PERFORMER “The Killers”
INDEX 00 03:49:39
FILE “14 – Under the Gun.wav” WAVE
INDEX 01 00:00:00

Leave a Reply

Your email address will not be published. Required fields are marked *

This site uses Akismet to reduce spam. Learn how your comment data is processed.