The Killers – Day & Age [UK]




Artist: The Killers
Year: 2008
Genre: Rock
Notes: Discogs
Add. Notes:
Cover incl.: Yes
Encoder: FLAC
Bitrate: ~900 kBit/s (44.1 kHz/16 Bit/s)
Log & Cue incl.: Yes
Size: 315,71 MB
Password: “slam” (without ” “)


All Downloads/Hosters are compatible

Download 1
Turbobit.net
Rapidgator.net
KatFile.com
UploadRar.com
Download 2
Turbobit.net
Rapidgator.net
KatFile.com
UploadRar.com
Download 3
Turbobit.net
Rapidgator.net
KatFile.com
UploadRar.com

Tracklist:

1 - Losing Touch  
2 - Human  
3 - Spaceman  
4 - Joy Ride  
5 - A Dustland Fairytale  
6 - This Is Your Life  
7 - I Can't Stay  
8 - Neon Tiger  
9 - The World We Live In  
10 - Goodnight, Travel Well  
Bonus Track
11 - A Crippling Blow

EAC-Log, CUE-Sheed & NFO:

Click to open spoiler
Exact Audio Copy V0.99 prebeta 4 from 23. January 2008

EAC extraction logfile from 19. November 2008, 18:14

The Killers / Day & Age

Used drive : _NEC DVD+-RW ND-3450A Adapter: 0 ID: 0

Read mode : Secure
Utilize accurate stream : Yes
Defeat audio cache : Yes
Make use of C2 pointers : No

Read offset correction : 48
Overread into Lead-In and Lead-Out : No
Fill up missing offset samples with silence : Yes
Delete leading and trailing silent blocks : No
Null samples used in CRC calculations : Yes
Used interface : Installed external ASPI interface
Gap handling : Appended to previous track

Used output format : User Defined Encoder
Selected bitrate : 256 kBit/s
Quality : High
Add ID3 tag : No
Command line compressor : C:\Program Files\Exact Audio Copy/flac.exe
Additional command line options : -8 -A tukey(0.25) -A gauss(0.1875) -b 4096 -V -T “artist=%a” -T “title=%t” -T “album=%g” -T “date=%y” -T “tracknumber=%n” -T “genre=%m” %s –sector-align

TOC of the extracted CD

Track | Start | Length | Start sector | End sector
———————————————————
1 | 0:00.00 | 4:15.34 | 0 | 19158
2 | 4:15.34 | 4:05.37 | 19159 | 37570
3 | 8:20.71 | 4:44.52 | 37571 | 58922
4 | 13:05.48 | 3:33.58 | 58923 | 74955
5 | 16:39.31 | 3:45.40 | 74956 | 91870
6 | 20:24.71 | 3:41.14 | 91871 | 108459
7 | 24:06.10 | 3:06.43 | 108460 | 122452
8 | 27:12.53 | 3:05.19 | 122453 | 136346
9 | 30:17.72 | 4:40.04 | 136347 | 157350
10 | 34:58.01 | 6:52.51 | 157351 | 188301
11 | 41:50.52 | 3:36.46 | 188302 | 204547

Track 1

Filename C:\Users\User\Desktop\Ois & Gar\Stuff\Restoration\The Killers – 2008 – Day & Age\Day & Age FLAC\01 – The Killers – Losing Touch.wav

Pre-gap length 0:00:02.00

Peak level 99.9 %
Track quality 100.0 %
Test CRC 56935A26
Copy CRC 56935A26
Track not present in AccurateRip database
Copy OK

Track 2

Filename C:\Users\User\Desktop\Ois & Gar\Stuff\Restoration\The Killers – 2008 – Day & Age\Day & Age FLAC\02 – The Killers – Human.wav

Pre-gap length 0:00:01.59

Peak level 99.9 %
Track quality 100.0 %
Test CRC 0A436043
Copy CRC 0A436043
Track not present in AccurateRip database
Copy OK

Track 3

Filename C:\Users\User\Desktop\Ois & Gar\Stuff\Restoration\The Killers – 2008 – Day & Age\Day & Age FLAC\03 – The Killers – Spaceman.wav

Pre-gap length 0:00:00.09

Peak level 99.9 %
Track quality 100.0 %
Test CRC A7D965D0
Copy CRC A7D965D0
Track not present in AccurateRip database
Copy OK

Track 4

Filename C:\Users\User\Desktop\Ois & Gar\Stuff\Restoration\The Killers – 2008 – Day & Age\Day & Age FLAC\04 – The Killers – Joy Ride.wav

Pre-gap length 0:00:00.11

Peak level 99.9 %
Track quality 100.0 %
Test CRC 97AF5500
Copy CRC 97AF5500
Track not present in AccurateRip database
Copy OK

Track 5

Filename C:\Users\User\Desktop\Ois & Gar\Stuff\Restoration\The Killers – 2008 – Day & Age\Day & Age FLAC\05 – The Killers – A Dustland Fairytale.wav

Peak level 99.9 %
Track quality 100.0 %
Test CRC AB2CEC06
Copy CRC AB2CEC06
Track not present in AccurateRip database
Copy OK

Track 6

Filename C:\Users\User\Desktop\Ois & Gar\Stuff\Restoration\The Killers – 2008 – Day & Age\Day & Age FLAC\06 – The Killers – This Is Your Life.wav

Pre-gap length 0:00:00.28

Peak level 99.9 %
Track quality 100.0 %
Test CRC 539C56C0
Copy CRC 539C56C0
Track not present in AccurateRip database
Copy OK

Track 7

Filename C:\Users\User\Desktop\Ois & Gar\Stuff\Restoration\The Killers – 2008 – Day & Age\Day & Age FLAC\07 – The Killers – I Can’t Stay.wav

Pre-gap length 0:00:02.22

Peak level 99.9 %
Track quality 100.0 %
Test CRC 86578971
Copy CRC 86578971
Track not present in AccurateRip database
Copy OK

Track 8

Filename C:\Users\User\Desktop\Ois & Gar\Stuff\Restoration\The Killers – 2008 – Day & Age\Day & Age FLAC\08 – The Killers – Neon Tiger.wav

Pre-gap length 0:00:01.16

Peak level 99.9 %
Track quality 100.0 %
Test CRC DE1723D8
Copy CRC DE1723D8
Track not present in AccurateRip database
Copy OK

Track 9

Filename C:\Users\User\Desktop\Ois & Gar\Stuff\Restoration\The Killers – 2008 – Day & Age\Day & Age FLAC\09 – The Killers – The World We Live In.wav

Pre-gap length 0:00:01.09

Peak level 99.9 %
Track quality 100.0 %
Test CRC E18A9251
Copy CRC E18A9251
Track not present in AccurateRip database
Copy OK

Track 10

Filename C:\Users\User\Desktop\Ois & Gar\Stuff\Restoration\The Killers – 2008 – Day & Age\Day & Age FLAC\10 – The Killers – Goodnight, Travel Well.wav

Pre-gap length 0:00:01.42

Peak level 99.9 %
Track quality 100.0 %
Test CRC 04893F14
Copy CRC 04893F14
Track not present in AccurateRip database
Copy OK

Track 11

Filename C:\Users\User\Desktop\Ois & Gar\Stuff\Restoration\The Killers – 2008 – Day & Age\Day & Age FLAC\11 – The Killers – A Crippling Blow (Bonus Track).wav

Pre-gap length 0:00:01.23

Peak level 99.9 %
Track quality 100.0 %
Test CRC 262D10FF
Copy CRC 262D10FF
Track not present in AccurateRip database
Copy OK

None of the tracks are present in the AccurateRip database

No errors occurred

End of status report

REM DATE 2008
REM DISCID 790AA70B
REM COMMENT “ExactAudioCopy v0.99pb4”
PERFORMER “The Killers”
TITLE “Day & Age”
FILE “01 – The Killers – Losing Touch.wav” WAVE
TRACK 01 AUDIO
TITLE “Losing Touch”
PERFORMER “The Killers”
INDEX 01 00:00:00
TRACK 02 AUDIO
TITLE “Human”
PERFORMER “The Killers”
INDEX 00 04:13:50
FILE “02 – The Killers – Human.wav” WAVE
INDEX 01 00:00:00
TRACK 03 AUDIO
TITLE “Spaceman”
PERFORMER “The Killers”
INDEX 00 04:05:28
FILE “03 – The Killers – Spaceman.wav” WAVE
INDEX 01 00:00:00
TRACK 04 AUDIO
TITLE “Joy Ride”
PERFORMER “The Killers”
INDEX 00 04:44:41
FILE “04 – The Killers – Joy Ride.wav” WAVE
INDEX 01 00:00:00
FILE “05 – The Killers – A Dustland Fairytale.wav” WAVE
TRACK 05 AUDIO
TITLE “A Dustland Fairytale”
PERFORMER “The Killers”
INDEX 01 00:00:00
TRACK 06 AUDIO
TITLE “This Is Your Life”
PERFORMER “The Killers”
INDEX 00 03:45:12
FILE “06 – The Killers – This Is Your Life.wav” WAVE
INDEX 01 00:00:00
TRACK 07 AUDIO
TITLE “I Can’t Stay”
PERFORMER “The Killers”
INDEX 00 03:38:67
FILE “07 – The Killers – I Can’t Stay.wav” WAVE
INDEX 01 00:00:00
TRACK 08 AUDIO
TITLE “Neon Tiger”
PERFORMER “The Killers”
INDEX 00 03:05:27
FILE “08 – The Killers – Neon Tiger.wav” WAVE
INDEX 01 00:00:00
TRACK 09 AUDIO
TITLE “The World We Live In”
PERFORMER “The Killers”
INDEX 00 03:04:10
FILE “09 – The Killers – The World We Live In.wav” WAVE
INDEX 01 00:00:00
TRACK 10 AUDIO
TITLE “Goodnight, Travel Well”
PERFORMER “The Killers”
INDEX 00 04:38:37
FILE “10 – The Killers – Goodnight, Travel Well.wav” WAVE
INDEX 01 00:00:00
TRACK 11 AUDIO
TITLE “A Crippling Blow (Bonus Track)”
PERFORMER “The Killers”
INDEX 00 06:51:28
FILE “11 – The Killers – A Crippling Blow (Bonus Track).wav” WAVE
INDEX 01 00:00:00


Leave a Reply

Your email address will not be published. Required fields are marked *

Enter the text from the image below
 

This site uses Akismet to reduce spam. Learn how your comment data is processed.