The Kids – The Kids (Remastered)




Artist: The Kids
Year: 1978/2007
Genre: Punk
Notes: Discogs
Add. Notes: Remastered
Encoder: FLAC
Bitrate: ~1000 kBit/s (44.1 kHz/16 Bit/s)
Bin/Cue incl.: Yes
Size: 174,19 MB
Password: “slam” (without ” “)


http://www.share-online.biz/dl/VCOMYSRPQXH
https://rapidgator.net/file/8e7407a33d699f034aca59e4532d3766
https://uploadbyte.com/52z3towoad2b
https://justupload.io/ammdi6hfl47v
https://uploadever.com/jzxy3jgbjlet

Tracklist:

1 - This Is Rock'n Roll - 2:34
2 - Do You Love The Nazis - 2:25
3 - Bloody Belgium - 1:17
4 - For The Fret - 2:36
5 - Baby That's Alright - 1:51
6 - Fascist Cops - 2:32
7 - I Wanna Get A Job In The City - 2:53
8 - I Don't Care - 2:10
9 - I Feel Alright - 1:37
10 - Old D.J.'s - 1:20
11 - I'll Get You - 1:20
12 - Money Is All I Need - 2:00

EAC-Log, CUE-Sheed & NFO:

Click to open spoiler
Exact Audio Copy V0.99 prebeta 4 from 23. January 2008

EAC extraction logfile from 18. July 2009, 18:02

The Kids / Anthology CD 01 – The Kids

Used drive : HL-DT-STCD-RW GCE-8240B Adapter: 1 ID: 0

Read mode : Secure
Utilize accurate stream : Yes
Defeat audio cache : Yes
Make use of C2 pointers : No

Read offset correction : 733
Overread into Lead-In and Lead-Out : No
Fill up missing offset samples with silence : Yes
Delete leading and trailing silent blocks : No
Null samples used in CRC calculations : Yes
Used interface : Native Win32 interface for Win NT & 2000
Gap handling : Appended to previous track

Used output format : User Defined Encoder
Selected bitrate : 128 kBit/s
Quality : High
Add ID3 tag : No
Command line compressor : C:\Program Files\Exact Audio Copy\Flac\flac.exe
Additional command line options : -V -8 -T “artist=%a” -T “title=%t” -T “album=%g” -T “date=%y” -T “tracknumber=%n” -T “genre=%m” %s

TOC of the extracted CD

Track | Start | Length | Start sector | End sector
———————————————————
1 | 0:00.00 | 2:35.49 | 0 | 11673
2 | 2:35.49 | 2:25.73 | 11674 | 22621
3 | 5:01.47 | 1:17.10 | 22622 | 28406
4 | 6:18.57 | 2:37.02 | 28407 | 40183
5 | 8:55.59 | 1:50.45 | 40184 | 48478
6 | 10:46.29 | 2:31.30 | 48479 | 59833
7 | 13:17.59 | 2:54.00 | 59834 | 72883
8 | 16:11.59 | 2:09.35 | 72884 | 82593
9 | 18:21.19 | 1:37.52 | 82594 | 89920
10 | 19:58.71 | 2:27.40 | 89921 | 100985
11 | 22:26.36 | 1:17.42 | 100986 | 106802
12 | 23:44.03 | 2:00.25 | 106803 | 115827

Track 1

Filename E:\The Kids – 2007 – Anthology CD 01 – The Kids\01 – This Is Rock And Roll.wav

Pre-gap length 0:00:02.00

Peak level 100.0 %
Track quality 100.0 %
Test CRC 28B063AB
Copy CRC 28B063AB
Accurately ripped (confidence 3) [8AEA58BE]
Copy OK

Track 2

Filename E:\The Kids – 2007 – Anthology CD 01 – The Kids\02 – Do You Love The Nazis.wav

Peak level 99.9 %
Track quality 100.0 %
Test CRC 6D2BF0FD
Copy CRC 6D2BF0FD
Accurately ripped (confidence 3) [FDDBC951]
Copy OK

Track 3

Filename E:\The Kids – 2007 – Anthology CD 01 – The Kids\03 – Bloody Belgium.wav

Pre-gap length 0:00:01.62

Peak level 99.9 %
Track quality 100.0 %
Test CRC 568AD166
Copy CRC 568AD166
Accurately ripped (confidence 3) [D3F9BF4F]
Copy OK

Track 4

Filename E:\The Kids – 2007 – Anthology CD 01 – The Kids\04 – For The Fret.wav

Pre-gap length 0:00:01.38

Peak level 99.9 %
Track quality 100.0 %
Test CRC B2C555DB
Copy CRC B2C555DB
Accurately ripped (confidence 3) [A8CB0B74]
Copy OK

Track 5

Filename E:\The Kids – 2007 – Anthology CD 01 – The Kids\05 – Baby That’s Alright.wav

Pre-gap length 0:00:01.34

Peak level 99.9 %
Track quality 99.9 %
Test CRC 04FE5E29
Copy CRC 04FE5E29
Accurately ripped (confidence 3) [2E07EA9B]
Copy OK

Track 6

Filename E:\The Kids – 2007 – Anthology CD 01 – The Kids\06 – Fascist Cops.wav

Peak level 99.9 %
Track quality 99.9 %
Test CRC 8F93A467
Copy CRC 8F93A467
Accurately ripped (confidence 3) [75312454]
Copy OK

Track 7

Filename E:\The Kids – 2007 – Anthology CD 01 – The Kids\07 – I Wanna Get A Job In The City.wav

Peak level 99.9 %
Track quality 99.9 %
Test CRC 5D65E435
Copy CRC 5D65E435
Accurately ripped (confidence 3) [01130F5E]
Copy OK

Track 8

Filename E:\The Kids – 2007 – Anthology CD 01 – The Kids\08 – I Don’t Care.wav

Pre-gap length 0:00:01.26

Peak level 99.9 %
Track quality 100.0 %
Test CRC D7AD612F
Copy CRC D7AD612F
Accurately ripped (confidence 3) [93FC869B]
Copy OK

Track 9

Filename E:\The Kids – 2007 – Anthology CD 01 – The Kids\09 – I Feel Alright.wav

Peak level 99.9 %
Track quality 100.0 %
Test CRC E7F0F230
Copy CRC E7F0F230
Accurately ripped (confidence 3) [2AF42287]
Copy OK

Track 10

Filename E:\The Kids – 2007 – Anthology CD 01 – The Kids\10 – Old D.J.’s.wav

Pre-gap length 0:00:01.53

Peak level 100.0 %
Track quality 100.0 %
Test CRC 3EFA8A17
Copy CRC 3EFA8A17
Accurately ripped (confidence 3) [433A3146]
Copy OK

Track 11

Filename E:\The Kids – 2007 – Anthology CD 01 – The Kids\11 – I’ll Get You.wav

Pre-gap length 0:00:01.37

Peak level 99.9 %
Track quality 100.0 %
Test CRC 9F2F6A72
Copy CRC 9F2F6A72
Accurately ripped (confidence 3) [A0BB4106]
Copy OK

Track 12

Filename E:\The Kids – 2007 – Anthology CD 01 – The Kids\12 – Money Is All I Need.wav

Peak level 99.9 %
Track quality 100.0 %
Test CRC C94E4267
Copy CRC C94E4267
Accurately ripped (confidence 3) [5F7F3C54]
Copy OK

All tracks accurately ripped

No errors occurred

End of status report

REM GENRE Rock
REM DATE 2007
REM DISCID 9206080C
REM COMMENT “ExactAudioCopy v0.99pb4”
FILE “01 – This Is Rock And Roll.wav” WAVE
TRACK 01 AUDIO
INDEX 01 00:00:00
FILE “02 – Do You Love The Nazis.wav” WAVE
TRACK 02 AUDIO
INDEX 01 00:00:00
TRACK 03 AUDIO
INDEX 00 02:24:26
FILE “03 – Bloody Belgium.wav” WAVE
INDEX 01 00:00:00
TRACK 04 AUDIO
INDEX 00 01:15:56
FILE “04 – For The Fret.wav” WAVE
INDEX 01 00:00:00
TRACK 05 AUDIO
INDEX 00 02:35:51
FILE “05 – Baby That’s Alright.wav” WAVE
INDEX 01 00:00:00
FILE “06 – Fascist Cops.wav” WAVE
TRACK 06 AUDIO
INDEX 01 00:00:00
FILE “07 – I Wanna Get A Job In The City.wav” WAVE
TRACK 07 AUDIO
INDEX 01 00:00:00
TRACK 08 AUDIO
INDEX 00 02:52:55
FILE “08 – I Don’t Care.wav” WAVE
INDEX 01 00:00:00
FILE “09 – I Feel Alright.wav” WAVE
TRACK 09 AUDIO
INDEX 01 00:00:00
TRACK 10 AUDIO
INDEX 00 01:36:12
FILE “10 – Old D.J.’s.wav” WAVE
INDEX 01 00:00:00
TRACK 11 AUDIO
INDEX 00 02:26:12
FILE “11 – I’ll Get You.wav” WAVE
INDEX 01 00:00:00
FILE “12 – Money Is All I Need.wav” WAVE
TRACK 12 AUDIO
INDEX 01 00:00:00

Leave a Reply

Your email address will not be published. Required fields are marked *

This site uses Akismet to reduce spam. Learn how your comment data is processed.