The Kids – Naughty Kids (Remastered)




Artist: The Kids
Year: 1978/2007
Genre: Punk
Notes: Discogs
Add. Notes: Remastered
Encoder: FLAC
Bitrate: ~900 kBit/s (44.1 kHz/16 Bit/s)
Bin/Cue incl.: Yes
Size: 207,16 MB
Password: “slam” (without ” “)


http://www.share-online.biz/dl/KQH9EVRPBVG

https://rapidgator.net/file/d236ca5fd3200aa05c2e8074ef3f03fb

https://uploadbyte.com/u494l8woejzv

https://uploadever.com/6ojxda12ga5y

https://justupload.io/54seworz7lhn

Tracklist:

1 - Jesus Christ Didn't Exist - 3:00
2 - Don't Wanna Be A Fat Boy - 1:51
3 - We Are The Prisoners - 1:41
4 - Radio Radio - 2:30
5 - No Monarchy - 2:25
6 - Through The Night - 3:21
7 - Dead Industry - 2:31
8 - Run Away - 1:50
9 - Razorblades For Sale - 1:53
10 - Sixteen - 2:33
11 - Naughty Boys - 2:33
12 - Sex Queen - 1:37
13 - Rock Over Belgium - 2:03

EAC-Log, CUE-Sheed & NFO:

Click to open spoiler
Exact Audio Copy V0.99 prebeta 4 from 23. January 2008

EAC extraction logfile from 18. July 2009, 18:20

The Kids / Anthology CD 02 – Naughty Kids (1978)

Used drive : HL-DT-STCD-RW GCE-8240B Adapter: 1 ID: 0

Read mode : Secure
Utilize accurate stream : Yes
Defeat audio cache : Yes
Make use of C2 pointers : No

Read offset correction : 733
Overread into Lead-In and Lead-Out : No
Fill up missing offset samples with silence : Yes
Delete leading and trailing silent blocks : No
Null samples used in CRC calculations : Yes
Used interface : Native Win32 interface for Win NT & 2000
Gap handling : Appended to previous track

Used output format : User Defined Encoder
Selected bitrate : 128 kBit/s
Quality : High
Add ID3 tag : No
Command line compressor : C:\Program Files\Exact Audio Copy\Flac\flac.exe
Additional command line options : -V -8 -T “artist=%a” -T “title=%t” -T “album=%g” -T “date=%y” -T “tracknumber=%n” -T “genre=%m” %s

TOC of the extracted CD

Track | Start | Length | Start sector | End sector
———————————————————
1 | 0:00.00 | 3:06.23 | 0 | 13972
2 | 3:06.23 | 1:54.57 | 13973 | 22579
3 | 5:01.05 | 1:44.56 | 22580 | 30435
4 | 6:45.61 | 2:34.45 | 30436 | 42030
5 | 9:20.31 | 2:28.40 | 42031 | 53170
6 | 11:48.71 | 3:23.74 | 53171 | 68469
7 | 15:12.70 | 2:35.13 | 68470 | 80107
8 | 17:48.08 | 1:54.09 | 80108 | 88666
9 | 19:42.17 | 1:45.39 | 88667 | 96580
10 | 21:27.56 | 2:35.65 | 96581 | 108270
11 | 24:03.46 | 2:25.15 | 108271 | 119160
12 | 26:28.61 | 1:39.20 | 119161 | 126605
13 | 28:08.06 | 2:04.07 | 126606 | 135912

Track 1

Filename E:\The Kids – 2007 – Anthology CD 02 – Naughty Kids (1978)\01 – Jesus Christ (Didn’t Exist).wav

Pre-gap length 0:00:02.00

Peak level 100.0 %
Track quality 99.9 %
Test CRC 00CA315B
Copy CRC 00CA315B
Accurately ripped (confidence 3) [90D842CA]
Copy OK

Track 2

Filename E:\The Kids – 2007 – Anthology CD 02 – Naughty Kids (1978)\02 – Don’t Wanna Be A Fat Boy.wav

Pre-gap length 0:00:01.30

Peak level 100.0 %
Track quality 100.0 %
Test CRC 081AF54B
Copy CRC 081AF54B
Accurately ripped (confidence 3) [F8571F15]
Copy OK

Track 3

Filename E:\The Kids – 2007 – Anthology CD 02 – Naughty Kids (1978)\03 – We Are The Prisoners.wav

Pre-gap length 0:00:01.24

Peak level 100.0 %
Track quality 100.0 %
Test CRC 4AD7E0B1
Copy CRC 4AD7E0B1
Accurately ripped (confidence 3) [240FD5E8]
Copy OK

Track 4

Filename E:\The Kids – 2007 – Anthology CD 02 – Naughty Kids (1978)\04 – Radio Radio.wav

Pre-gap length 0:00:01.18

Peak level 95.8 %
Track quality 100.0 %
Test CRC 62F792A1
Copy CRC 62F792A1
Accurately ripped (confidence 3) [97BE5D83]
Copy OK

Track 5

Filename E:\The Kids – 2007 – Anthology CD 02 – Naughty Kids (1978)\05 – No Monarchy.wav

Peak level 99.8 %
Track quality 100.0 %
Test CRC 4569F594
Copy CRC 4569F594
Accurately ripped (confidence 3) [DAB03925]
Copy OK

Track 6

Filename E:\The Kids – 2007 – Anthology CD 02 – Naughty Kids (1978)\06 – Through The Night.wav

Pre-gap length 0:00:01.04

Peak level 100.0 %
Track quality 100.0 %
Test CRC AB424B2B
Copy CRC AB424B2B
Accurately ripped (confidence 3) [77FE381E]
Copy OK

Track 7

Filename E:\The Kids – 2007 – Anthology CD 02 – Naughty Kids (1978)\07 – Dead Industry.wav

Pre-gap length 0:00:01.24

Peak level 100.0 %
Track quality 100.0 %
Test CRC 0697EC4E
Copy CRC 0697EC4E
Accurately ripped (confidence 3) [0E9F125F]
Copy OK

Track 8

Filename E:\The Kids – 2007 – Anthology CD 02 – Naughty Kids (1978)\08 – Run Away.wav

Pre-gap length 0:00:01.50

Peak level 100.0 %
Track quality 100.0 %
Test CRC B7E1BB13
Copy CRC B7E1BB13
Accurately ripped (confidence 3) [0D9BA26F]
Copy OK

Track 9

Filename E:\The Kids – 2007 – Anthology CD 02 – Naughty Kids (1978)\09 – Razor Blade For Sale.wav

Pre-gap length 0:00:01.21

Peak level 100.0 %
Track quality 100.0 %
Test CRC 9FC95E3E
Copy CRC 9FC95E3E
Accurately ripped (confidence 3) [6F64EB45]
Copy OK

Track 10

Filename E:\The Kids – 2007 – Anthology CD 02 – Naughty Kids (1978)\10 – Sixteen.wav

Pre-gap length 0:00:01.78

Peak level 99.9 %
Track quality 100.0 %
Test CRC 3DBFA6C9
Copy CRC 3DBFA6C9
Accurately ripped (confidence 3) [C6ADB77E]
Copy OK

Track 11

Filename E:\The Kids – 2007 – Anthology CD 02 – Naughty Kids (1978)\11 – Naughty Boy.wav

Pre-gap length 0:00:01.52

Peak level 100.0 %
Track quality 100.0 %
Test CRC 7150E9DA
Copy CRC 7150E9DA
Accurately ripped (confidence 3) [FC32418E]
Copy OK

Track 12

Filename E:\The Kids – 2007 – Anthology CD 02 – Naughty Kids (1978)\12 – Sex Queen.wav

Pre-gap length 0:00:01.04

Peak level 97.6 %
Track quality 99.8 %
Test CRC 5B3DD7F0
Copy CRC 5B3DD7F0
Accurately ripped (confidence 3) [4A86CBAF]
Copy OK

Track 13

Filename E:\The Kids – 2007 – Anthology CD 02 – Naughty Kids (1978)\13 – Rock Over Belgium.wav

Pre-gap length 0:00:01.40

Peak level 99.9 %
Track quality 100.0 %
Test CRC 3216AD90
Copy CRC 3216AD90
Accurately ripped (confidence 3) [D1A44436]
Copy OK

All tracks accurately ripped

No errors occurred

End of status report

REM GENRE Rock
REM DATE 2007
REM DISCID 9E07140D
REM COMMENT “ExactAudioCopy v0.99pb4”
FILE “01 – Jesus Christ (Didn’t Exist).wav” WAVE
TRACK 01 AUDIO
INDEX 01 00:00:00
TRACK 02 AUDIO
INDEX 00 03:05:00
FILE “02 – Don’t Wanna Be A Fat Boy.wav” WAVE
INDEX 01 00:00:00
TRACK 03 AUDIO
INDEX 00 01:53:39
FILE “03 – We Are The Prisoners.wav” WAVE
INDEX 01 00:00:00
TRACK 04 AUDIO
INDEX 00 01:43:42
FILE “04 – Radio Radio.wav” WAVE
INDEX 01 00:00:00
FILE “05 – No Monarchy.wav” WAVE
TRACK 05 AUDIO
INDEX 01 00:00:00
TRACK 06 AUDIO
INDEX 00 02:27:37
FILE “06 – Through The Night.wav” WAVE
INDEX 01 00:00:00
TRACK 07 AUDIO
INDEX 00 03:22:56
FILE “07 – Dead Industry.wav” WAVE
INDEX 01 00:00:00
TRACK 08 AUDIO
INDEX 00 02:33:50
FILE “08 – Run Away.wav” WAVE
INDEX 01 00:00:00
TRACK 09 AUDIO
INDEX 00 01:52:68
FILE “09 – Razor Blade For Sale.wav” WAVE
INDEX 01 00:00:00
TRACK 10 AUDIO
INDEX 00 01:43:55
FILE “10 – Sixteen.wav” WAVE
INDEX 01 00:00:00
TRACK 11 AUDIO
INDEX 00 02:34:26
FILE “11 – Naughty Boy.wav” WAVE
INDEX 01 00:00:00
TRACK 12 AUDIO
INDEX 00 02:24:12
FILE “12 – Sex Queen.wav” WAVE
INDEX 01 00:00:00
TRACK 13 AUDIO
INDEX 00 01:37:65
FILE “13 – Rock Over Belgium.wav” WAVE
INDEX 01 00:00:00

Leave a Reply

Your email address will not be published. Required fields are marked *

This site uses Akismet to reduce spam. Learn how your comment data is processed.