The Kids – Living In The 20th Century (Remastered)




Artist: The Kids
Year: 1980/2007
Genre: Punk
Notes: Discogs
Add. Notes: Remastered
Cover incl.: Yes
Encoder: FLAC
Bitrate: ~900 kBit/s (44.1 kHz/16 Bit/s)
Log & Cue incl.: Yes
Size: 232,38 MB
Password: “slam” (without ” “)


All Downloads/Hosters are compatible

Download 1
Turbobit.net
Rapidgator.net
UploadByte.com
UploadEver.com
JustUpload.io
Download 2
Turbobit.net
Rapidgator.net
UploadByte.com
UploadEver.com
JustUpload.io
Download 3
Turbobit.net
Rapidgator.net
UploadByte.com
UploadEver.com
JustUpload.io

Tracklist:

1 - Tonight 
2 - Leave Me Alone 
3 - Do You Wanna Know  
4 - So Cruel To Me  
5 - I'm Your Mirror 
6 - Something Better To Do 
7 - Queen Of Spades 
8 - Some Day 
9 - Here They Come 
10 - Dance The Night Away 
11 - Sorrow 
12 - Louie, Louie

EAC-Log, CUE-Sheed & NFO:

Click to open spoiler
Exact Audio Copy V0.99 prebeta 4 from 23. January 2008

EAC extraction logfile from 18. July 2009, 18:52

The Kids / Anthology CD 03 – Living In The 20th Century (1980)

Used drive : HL-DT-STCD-RW GCE-8240B Adapter: 1 ID: 0

Read mode : Secure
Utilize accurate stream : Yes
Defeat audio cache : Yes
Make use of C2 pointers : No

Read offset correction : 733
Overread into Lead-In and Lead-Out : No
Fill up missing offset samples with silence : Yes
Delete leading and trailing silent blocks : No
Null samples used in CRC calculations : Yes
Used interface : Native Win32 interface for Win NT & 2000
Gap handling : Appended to previous track

Used output format : User Defined Encoder
Selected bitrate : 128 kBit/s
Quality : High
Add ID3 tag : No
Command line compressor : C:\Program Files\Exact Audio Copy\Flac\flac.exe
Additional command line options : -V -8 -T “artist=%a” -T “title=%t” -T “album=%g” -T “date=%y” -T “tracknumber=%n” -T “genre=%m” %s

TOC of the extracted CD

Track | Start | Length | Start sector | End sector
———————————————————
1 | 0:00.00 | 2:43.48 | 0 | 12272
2 | 2:43.48 | 2:58.39 | 12273 | 25661
3 | 5:42.12 | 2:59.26 | 25662 | 39112
4 | 8:41.38 | 3:36.54 | 39113 | 55366
5 | 12:18.17 | 1:59.06 | 55367 | 64297
6 | 14:17.23 | 2:52.00 | 64298 | 77197
7 | 17:09.23 | 2:25.24 | 77198 | 88096
8 | 19:34.47 | 2:32.48 | 88097 | 99544
9 | 22:07.20 | 4:22.62 | 99545 | 119256
10 | 26:30.07 | 2:11.31 | 119257 | 129112
11 | 28:41.38 | 3:19.02 | 129113 | 144039
12 | 32:00.40 | 3:36.00 | 144040 | 160239

Track 1

Filename E:\The Kids – 2007 – Anthology CD 03 – Living In The 20th Century (1980)\01 – Tonight.wav

Pre-gap length 0:00:02.00

Peak level 100.0 %
Track quality 100.0 %
Test CRC 5097839D
Copy CRC 5097839D
Accurately ripped (confidence 2) [CBF8CE28]
Copy OK

Track 2

Filename E:\The Kids – 2007 – Anthology CD 03 – Living In The 20th Century (1980)\02 – Leave Me Alone.wav

Pre-gap length 0:00:00.81

Peak level 100.0 %
Track quality 100.0 %
Test CRC 6F57FD4E
Copy CRC 6F57FD4E
Accurately ripped (confidence 2) [DD00FC18]
Copy OK

Track 3

Filename E:\The Kids – 2007 – Anthology CD 03 – Living In The 20th Century (1980)\03 – Do You Wanna Know.wav

Pre-gap length 0:00:01.42

Peak level 100.0 %
Track quality 100.0 %
Test CRC BAE432F2
Copy CRC BAE432F2
Accurately ripped (confidence 2) [ACB1A961]
Copy OK

Track 4

Filename E:\The Kids – 2007 – Anthology CD 03 – Living In The 20th Century (1980)\04 – So Cruel To Me.wav

Pre-gap length 0:00:01.25

Peak level 99.9 %
Track quality 100.0 %
Test CRC AA6DAFC1
Copy CRC AA6DAFC1
Accurately ripped (confidence 2) [88A9F31E]
Copy OK

Track 5

Filename E:\The Kids – 2007 – Anthology CD 03 – Living In The 20th Century (1980)\05 – I’m Your Mirror.wav

Pre-gap length 0:00:02.73

Peak level 99.9 %
Track quality 100.0 %
Test CRC 3366017C
Copy CRC 3366017C
Accurately ripped (confidence 2) [037F555D]
Copy OK

Track 6

Filename E:\The Kids – 2007 – Anthology CD 03 – Living In The 20th Century (1980)\06 – Something Better To Do.wav

Pre-gap length 0:00:00.82

Peak level 99.9 %
Track quality 99.9 %
Test CRC 42179A37
Copy CRC 42179A37
Accurately ripped (confidence 2) [82C3073B]
Copy OK

Track 7

Filename E:\The Kids – 2007 – Anthology CD 03 – Living In The 20th Century (1980)\07 – Queen Of Spades.wav

Pre-gap length 0:00:01.30

Peak level 99.9 %
Track quality 100.0 %
Test CRC F57F73E6
Copy CRC F57F73E6
Accurately ripped (confidence 2) [1A8BDDF1]
Copy OK

Track 8

Filename E:\The Kids – 2007 – Anthology CD 03 – Living In The 20th Century (1980)\08 – Some Day.wav

Pre-gap length 0:00:01.21

Peak level 99.9 %
Track quality 100.0 %
Test CRC 09F8382F
Copy CRC 09F8382F
Accurately ripped (confidence 2) [E2FF2D1D]
Copy OK

Track 9

Filename E:\The Kids – 2007 – Anthology CD 03 – Living In The 20th Century (1980)\09 – Here They Come.wav

Pre-gap length 0:00:01.72

Peak level 100.0 %
Track quality 100.0 %
Test CRC DE5E18C8
Copy CRC DE5E18C8
Accurately ripped (confidence 2) [9FBA04DC]
Copy OK

Track 10

Filename E:\The Kids – 2007 – Anthology CD 03 – Living In The 20th Century (1980)\10 – Dance The Night Away.wav

Pre-gap length 0:00:00.74

Peak level 100.0 %
Track quality 100.0 %
Test CRC 9C1F25B7
Copy CRC 9C1F25B7
Accurately ripped (confidence 2) [84CCB03C]
Copy OK

Track 11

Filename E:\The Kids – 2007 – Anthology CD 03 – Living In The 20th Century (1980)\11 – Sorrow.wav

Pre-gap length 0:00:01.78

Peak level 100.0 %
Track quality 100.0 %
Test CRC 6232D683
Copy CRC 6232D683
Accurately ripped (confidence 2) [564BD5ED]
Copy OK

Track 12

Filename E:\The Kids – 2007 – Anthology CD 03 – Living In The 20th Century (1980)\12 – Louie, Louie.wav

Pre-gap length 0:00:01.68

Peak level 99.9 %
Track quality 100.0 %
Test CRC A7C42493
Copy CRC A7C42493
Accurately ripped (confidence 2) [B638BC59]
Copy OK

All tracks accurately ripped

No errors occurred

End of status report

REM GENRE Rock
REM DATE 2007
REM DISCID 9308580C
REM COMMENT “ExactAudioCopy v0.99pb4”
FILE “01 – Tonight.wav” WAVE
TRACK 01 AUDIO
INDEX 01 00:00:00
TRACK 02 AUDIO
INDEX 00 02:42:62
FILE “02 – Leave Me Alone.wav” WAVE
INDEX 01 00:00:00
TRACK 03 AUDIO
INDEX 00 02:57:07
FILE “03 – Do You Wanna Know.wav” WAVE
INDEX 01 00:00:00
TRACK 04 AUDIO
INDEX 00 02:58:07
FILE “04 – So Cruel To Me.wav” WAVE
INDEX 01 00:00:00
TRACK 05 AUDIO
INDEX 00 03:33:74
FILE “05 – I’m Your Mirror.wav” WAVE
INDEX 01 00:00:00
TRACK 06 AUDIO
INDEX 00 01:58:19
FILE “06 – Something Better To Do.wav” WAVE
INDEX 01 00:00:00
TRACK 07 AUDIO
INDEX 00 02:50:52
FILE “07 – Queen Of Spades.wav” WAVE
INDEX 01 00:00:00
TRACK 08 AUDIO
INDEX 00 02:24:08
FILE “08 – Some Day.wav” WAVE
INDEX 01 00:00:00
TRACK 09 AUDIO
INDEX 00 02:30:69
FILE “09 – Here They Come.wav” WAVE
INDEX 01 00:00:00
TRACK 10 AUDIO
INDEX 00 04:22:06
FILE “10 – Dance The Night Away.wav” WAVE
INDEX 01 00:00:00
TRACK 11 AUDIO
INDEX 00 02:09:47
FILE “11 – Sorrow.wav” WAVE
INDEX 01 00:00:00
TRACK 12 AUDIO
INDEX 00 03:17:26
FILE “12 – Louie, Louie.wav” WAVE
INDEX 01 00:00:00

Leave a Reply

Your email address will not be published. Required fields are marked *

This site uses Akismet to reduce spam. Learn how your comment data is processed.