The Kids – If The Kids … – Live (Remastered)




Artist: The Kids
Year: 1982/2007
Genre: Punk
Notes: Discogs
Add. Notes: Remastered
Cover incl.: Yes
Encoder: FLAC
Bitrate: ~1000 kBit/s (44.1 kHz/16 Bit/s)
Log & Cue incl.: Yes
Size: 255,94 MB
Password: “slam” (without ” “)


All Downloads/Hosters are compatible

Download 1
Turbobit.net
Rapidgator.net
UploadEver.com
JustUpload.io
UsersDrive.com
Download 2
Turbobit.net
Rapidgator.net
UploadEver.com
JustUpload.io
UsersDrive.com
Download 3
Turbobit.net
Rapidgator.net
UploadEver.com
JustUpload.io
UsersDrive.com

Tracklist:

1 	Tonight 	3:47
2 	Rider In The Night 	2:50
3 	Another World 	3:02
4 	Driving So Long 	2:38
5 	Dancing 	2:45
6 	Rock Over Belgium 	1:58
7 	It's Only Natural 	2:40
8 	Do You Wanna Know 	3:10
9 	Wild Days Are Over 	3:14
10 	There Will Be No Next Time 	3:30
11 	If The Kids Are United 	5:48

EAC-Log, CUE-Sheed & NFO:

Click to open spoiler
Exact Audio Copy V0.99 prebeta 4 from 23. January 2008

EAC extraction logfile from 19. July 2009, 1:48

The Kids / Anthology CD 05 – If The Kids… (1982)

Used drive : HL-DT-STCD-RW GCE-8240B Adapter: 1 ID: 0

Read mode : Secure
Utilize accurate stream : Yes
Defeat audio cache : Yes
Make use of C2 pointers : No

Read offset correction : 733
Overread into Lead-In and Lead-Out : No
Fill up missing offset samples with silence : Yes
Delete leading and trailing silent blocks : No
Null samples used in CRC calculations : Yes
Used interface : Native Win32 interface for Win NT & 2000
Gap handling : Appended to previous track

Used output format : User Defined Encoder
Selected bitrate : 128 kBit/s
Quality : High
Add ID3 tag : No
Command line compressor : C:\Program Files\Exact Audio Copy\Flac\flac.exe
Additional command line options : -V -8 -T “artist=%a” -T “title=%t” -T “album=%g” -T “date=%y” -T “tracknumber=%n” -T “genre=%m” %s

TOC of the extracted CD

Track | Start | Length | Start sector | End sector
———————————————————
1 | 0:00.00 | 3:42.51 | 0 | 16700
2 | 3:42.51 | 2:50.57 | 16701 | 29507
3 | 6:33.33 | 3:21.08 | 29508 | 44590
4 | 9:54.41 | 2:35.20 | 44591 | 56235
5 | 12:29.61 | 3:03.48 | 56236 | 70008
6 | 15:33.34 | 1:52.04 | 70009 | 78412
7 | 17:25.38 | 2:50.53 | 78413 | 91215
8 | 20:16.16 | 3:19.27 | 91216 | 106167
9 | 23:35.43 | 3:48.50 | 106168 | 123317
10 | 27:24.18 | 3:50.46 | 123318 | 140613
11 | 31:14.64 | 6:03.08 | 140614 | 167846

Track 1

Filename E:\The Kids – 2007 – Anthology CD 05 – If The Kids… (1982)\01 – Tonight.wav

Pre-gap length 0:00:02.00

Peak level 99.9 %
Track quality 100.0 %
Test CRC 140B40B9
Copy CRC 140B40B9
Accurately ripped (confidence 2) [945961DE]
Copy OK

Track 2

Filename E:\The Kids – 2007 – Anthology CD 05 – If The Kids… (1982)\02 – Rider In The Night.wav

Peak level 99.9 %
Track quality 100.0 %
Test CRC 4682B4FE
Copy CRC 4682B4FE
Accurately ripped (confidence 2) [C2B592B2]
Copy OK

Track 3

Filename E:\The Kids – 2007 – Anthology CD 05 – If The Kids… (1982)\03 – Another World.wav

Peak level 99.9 %
Track quality 100.0 %
Test CRC 16243549
Copy CRC 16243549
Accurately ripped (confidence 2) [B76EF008]
Copy OK

Track 4

Filename E:\The Kids – 2007 – Anthology CD 05 – If The Kids… (1982)\04 – Driving So Long.wav

Pre-gap length 0:00:02.92

Peak level 99.9 %
Track quality 100.0 %
Test CRC 69DBA6D2
Copy CRC 69DBA6D2
Accurately ripped (confidence 2) [F3427545]
Copy OK

Track 5

Filename E:\The Kids – 2007 – Anthology CD 05 – If The Kids… (1982)\05 – Dancing.wav

Peak level 99.9 %
Track quality 99.9 %
Test CRC 0C9E51FC
Copy CRC 0C9E51FC
Accurately ripped (confidence 2) [5C07C704]
Copy OK

Track 6

Filename E:\The Kids – 2007 – Anthology CD 05 – If The Kids… (1982)\06 – Rock Over Belgium.wav

Peak level 99.9 %
Track quality 100.0 %
Test CRC 4222415A
Copy CRC 4222415A
Accurately ripped (confidence 2) [A89A5193]
Copy OK

Track 7

Filename E:\The Kids – 2007 – Anthology CD 05 – If The Kids… (1982)\07 – It’s Only Natural.wav

Peak level 100.0 %
Track quality 100.0 %
Test CRC 09595999
Copy CRC 09595999
Accurately ripped (confidence 2) [4EF419C3]
Copy OK

Track 8

Filename E:\The Kids – 2007 – Anthology CD 05 – If The Kids… (1982)\08 – Do You Wanna Know.wav

Peak level 99.9 %
Track quality 100.0 %
Test CRC A1D9F246
Copy CRC A1D9F246
Accurately ripped (confidence 2) [777144EC]
Copy OK

Track 9

Filename E:\The Kids – 2007 – Anthology CD 05 – If The Kids… (1982)\09 – Wild Days Are Over.wav

Peak level 99.9 %
Track quality 100.0 %
Test CRC EFD205F3
Copy CRC EFD205F3
Accurately ripped (confidence 2) [8AC71D07]
Copy OK

Track 10

Filename E:\The Kids – 2007 – Anthology CD 05 – If The Kids… (1982)\10 – There Will Be No Next Time.wav

Peak level 99.9 %
Track quality 100.0 %
Test CRC BBC0EA65
Copy CRC BBC0EA65
Accurately ripped (confidence 2) [252EA867]
Copy OK

Track 11

Filename E:\The Kids – 2007 – Anthology CD 05 – If The Kids… (1982)\11 – If The Kids Are United.wav

Pre-gap length 0:00:01.96

Peak level 99.9 %
Track quality 100.0 %
Test CRC A27684EB
Copy CRC A27684EB
Accurately ripped (confidence 2) [FF48A578]
Copy OK

All tracks accurately ripped

No errors occurred

End of status report

REM GENRE Rock
REM DATE 2007
REM DISCID 9908BD0B
REM COMMENT “ExactAudioCopy v0.99pb4”
FILE “01 – Tonight.wav” WAVE
TRACK 01 AUDIO
INDEX 01 00:00:00
FILE “02 – Rider In The Night.wav” WAVE
TRACK 02 AUDIO
INDEX 01 00:00:00
FILE “03 – Another World.wav” WAVE
TRACK 03 AUDIO
INDEX 01 00:00:00
TRACK 04 AUDIO
INDEX 00 03:18:14
FILE “04 – Driving So Long.wav” WAVE
INDEX 01 00:00:00
FILE “05 – Dancing.wav” WAVE
TRACK 05 AUDIO
INDEX 01 00:00:00
FILE “06 – Rock Over Belgium.wav” WAVE
TRACK 06 AUDIO
INDEX 01 00:00:00
FILE “07 – It’s Only Natural.wav” WAVE
TRACK 07 AUDIO
INDEX 01 00:00:00
FILE “08 – Do You Wanna Know.wav” WAVE
TRACK 08 AUDIO
INDEX 01 00:00:00
FILE “09 – Wild Days Are Over.wav” WAVE
TRACK 09 AUDIO
INDEX 01 00:00:00
FILE “10 – There Will Be No Next Time.wav” WAVE
TRACK 10 AUDIO
INDEX 01 00:00:00
TRACK 11 AUDIO
INDEX 00 03:48:49
FILE “11 – If The Kids Are United.wav” WAVE
INDEX 01 00:00:00

Leave a Reply

Your email address will not be published. Required fields are marked *

This site uses Akismet to reduce spam. Learn how your comment data is processed.