The Kids – Gotcha!




Artist: The Kids
Year: 1985/2007
Genre: Punk
Notes: Discogs
Add. Notes:
Encoder: FLAC
Bitrate: ~1000 kBit/s (44.1 kHz/16 Bit/s)
Bin/Cue incl.: Yes
Size: 236,72 MB
Password: “slam” (without ” “)


http://www.share-online.biz/dl/SHJOLTRP16

https://rapidgator.net/file/78f2ccc7a5334c73b043473e835f7175

https://uploadbyte.com/9pu0lm729o5x

https://uploadever.com/iym1knfyhacb

https://justupload.io/qen5yrd0lkhl

Tracklist:

1 - Fooling Yourself - 3:44
2 - Boring Man - 3:46
3 - Tonight - 5:16
4 - Pull Me Up - 3:26
5 - Loneliness - 3:15
6 - In The Heat Of The Night - 3:08
7 - Hometown - 3:57
8 - Breakaway - 3:18
9 - Do It Now - 3:01

EAC-Log, CUE-Sheed & NFO:

Click to open spoiler
Exact Audio Copy V0.99 prebeta 4 from 23. January 2008

EAC extraction logfile from 19. July 2009, 2:04

The Kids / Anthology CD 06 – Gotcha! (1985)

Used drive : HL-DT-STCD-RW GCE-8240B Adapter: 1 ID: 0

Read mode : Secure
Utilize accurate stream : Yes
Defeat audio cache : Yes
Make use of C2 pointers : No

Read offset correction : 733
Overread into Lead-In and Lead-Out : No
Fill up missing offset samples with silence : Yes
Delete leading and trailing silent blocks : No
Null samples used in CRC calculations : Yes
Used interface : Native Win32 interface for Win NT & 2000
Gap handling : Appended to previous track

Used output format : User Defined Encoder
Selected bitrate : 128 kBit/s
Quality : High
Add ID3 tag : No
Command line compressor : C:\Program Files\Exact Audio Copy\Flac\flac.exe
Additional command line options : -V -8 -T “artist=%a” -T “title=%t” -T “album=%g” -T “date=%y” -T “tracknumber=%n” -T “genre=%m” %s

TOC of the extracted CD

Track | Start | Length | Start sector | End sector
———————————————————
1 | 0:00.00 | 3:51.12 | 0 | 17336
2 | 3:51.12 | 3:50.19 | 17337 | 34605
3 | 7:41.31 | 5:17.25 | 34606 | 58405
4 | 12:58.56 | 3:32.12 | 58406 | 74317
5 | 16:30.68 | 3:20.00 | 74318 | 89317
6 | 19:50.68 | 3:19.64 | 89318 | 104306
7 | 23:10.57 | 4:10.36 | 104307 | 123092
8 | 27:21.18 | 3:28.36 | 123093 | 138728
9 | 30:49.54 | 3:12.19 | 138729 | 153147

Track 1

Filename E:\The Kids – 2007 – Anthology CD 06 – Gotcha! (1985)\01 – Fooling Yourself.wav

Pre-gap length 0:00:02.00

Peak level 99.9 %
Track quality 100.0 %
Test CRC 58D62DF7
Copy CRC 58D62DF7
Accurately ripped (confidence 3) [C2B18B06]
Copy OK

Track 2

Filename E:\The Kids – 2007 – Anthology CD 06 – Gotcha! (1985)\02 – Boring Man.wav

Pre-gap length 0:00:01.97

Peak level 99.9 %
Track quality 100.0 %
Test CRC A2F89543
Copy CRC A2F89543
Accurately ripped (confidence 2) [DA71D54C]
Copy OK

Track 3

Filename E:\The Kids – 2007 – Anthology CD 06 – Gotcha! (1985)\03 – Tonight.wav

Pre-gap length 0:00:02.86

Peak level 99.9 %
Track quality 100.0 %
Test CRC 85F92501
Copy CRC 85F92501
Accurately ripped (confidence 3) [C935AE0E]
Copy OK

Track 4

Filename E:\The Kids – 2007 – Anthology CD 06 – Gotcha! (1985)\04 – Pull Me Up.wav

Pre-gap length 0:00:01.98

Peak level 99.9 %
Track quality 99.9 %
Test CRC 81F28D0C
Copy CRC 81F28D0C
Accurately ripped (confidence 3) [CCDBDC67]
Copy OK

Track 5

Filename E:\The Kids – 2007 – Anthology CD 06 – Gotcha! (1985)\05 – Loneliness.wav

Pre-gap length 0:00:02.48

Peak level 99.9 %
Track quality 100.0 %
Test CRC 33242B0A
Copy CRC 33242B0A
Accurately ripped (confidence 3) [3EACE5D3]
Copy OK

Track 6

Filename E:\The Kids – 2007 – Anthology CD 06 – Gotcha! (1985)\06 – In The Heat Of The Night.wav

Pre-gap length 0:00:01.00

Peak level 99.9 %
Track quality 100.0 %
Test CRC 5D932B66
Copy CRC 5D932B66
Accurately ripped (confidence 3) [6569C61A]
Copy OK

Track 7

Filename E:\The Kids – 2007 – Anthology CD 06 – Gotcha! (1985)\07 – Hometown.wav

Pre-gap length 0:00:01.22

Peak level 99.9 %
Track quality 100.0 %
Test CRC 47CDEB7B
Copy CRC 47CDEB7B
Accurately ripped (confidence 3) [3DE1BA55]
Copy OK

Track 8

Filename E:\The Kids – 2007 – Anthology CD 06 – Gotcha! (1985)\08 – Breakaway.wav

Pre-gap length 0:00:01.58

Peak level 99.9 %
Track quality 100.0 %
Test CRC FAE2DBB6
Copy CRC FAE2DBB6
Accurately ripped (confidence 3) [7DF143CC]
Copy OK

Track 9

Filename E:\The Kids – 2007 – Anthology CD 06 – Gotcha! (1985)\09 – Do It Now.wav

Pre-gap length 0:00:01.14

Peak level 99.9 %
Track quality 100.0 %
Test CRC 344FFE94
Copy CRC 344FFE94
Accurately ripped (confidence 3) [D11772BC]
Copy OK

All tracks accurately ripped

No errors occurred

End of status report

REM GENRE Rock
REM DATE 2007
REM DISCID 7307F909
REM COMMENT “ExactAudioCopy v0.99pb4”
FILE “01 – Fooling Yourself.wav” WAVE
TRACK 01 AUDIO
INDEX 01 00:00:00
TRACK 02 AUDIO
INDEX 00 03:49:14
FILE “02 – Boring Man.wav” WAVE
INDEX 01 00:00:00
TRACK 03 AUDIO
INDEX 00 03:47:29
FILE “03 – Tonight.wav” WAVE
INDEX 01 00:00:00
TRACK 04 AUDIO
INDEX 00 05:15:26
FILE “04 – Pull Me Up.wav” WAVE
INDEX 01 00:00:00
TRACK 05 AUDIO
INDEX 00 03:29:51
FILE “05 – Loneliness.wav” WAVE
INDEX 01 00:00:00
TRACK 06 AUDIO
INDEX 00 03:19:00
FILE “06 – In The Heat Of The Night.wav” WAVE
INDEX 01 00:00:00
TRACK 07 AUDIO
INDEX 00 03:18:47
FILE “07 – Hometown.wav” WAVE
INDEX 01 00:00:00
TRACK 08 AUDIO
INDEX 00 04:08:67
FILE “08 – Breakaway.wav” WAVE
INDEX 01 00:00:00
TRACK 09 AUDIO
INDEX 00 03:27:25
FILE “09 – Do It Now.wav” WAVE
INDEX 01 00:00:00

Leave a Reply

Your email address will not be published. Required fields are marked *

Enter the text from the image below
 

This site uses Akismet to reduce spam. Learn how your comment data is processed.