The Kids – Black Out (Remastered)




Artist: The Kids
Year: 1981/2007
Genre: Punk
Notes: Discogs
Add. Notes: Remastered
Cover incl.: Yes
Encoder: FLAC
Bitrate: ~1000 kBit/s (44.1 kHz/16 Bit/s)
Log & Cue incl.: Yes
Size: 261,67 MB
Password: “slam” (without ” “)


All Downloads/Hosters are compatible

Download 1
Turbobit.net
Rapidgator.net
UploadEver.com
JustUpload.io
HexUpload.net
Download 2
Turbobit.net
Rapidgator.net
UploadEver.com
JustUpload.io
HexUpload.net
Download 3
Turbobit.net
Rapidgator.net
UploadEver.com
JustUpload.io
HexUpload.net

Tracklist:

Johnny's On The Dole - 2:43
Tomorrow - 3:19
Lonely Man - 3:14
There Will Be No Next Time - 2:41
Lone Rider - 3:30
Wild Days Are Over - 3:14
Spend The Night With Me - 3:00
Innocent Girls - 3:56
Don't Say No - 2:37
My Only Love - 2:41
It Doesn't Matter Baby - 2:19
Another World - 2:49

EAC-Log, CUE-Sheed & NFO:

Click to open spoiler
Exact Audio Copy V0.99 prebeta 4 from 23. January 2008

EAC extraction logfile from 19. July 2009, 1:30

The Kids / Anthology CD 04 – Black Out (1981)

Used drive : HL-DT-STCD-RW GCE-8240B Adapter: 1 ID: 0

Read mode : Secure
Utilize accurate stream : Yes
Defeat audio cache : Yes
Make use of C2 pointers : No

Read offset correction : 733
Overread into Lead-In and Lead-Out : No
Fill up missing offset samples with silence : Yes
Delete leading and trailing silent blocks : No
Null samples used in CRC calculations : Yes
Used interface : Native Win32 interface for Win NT & 2000
Gap handling : Appended to previous track

Used output format : User Defined Encoder
Selected bitrate : 128 kBit/s
Quality : High
Add ID3 tag : No
Command line compressor : C:\Program Files\Exact Audio Copy\Flac\flac.exe
Additional command line options : -V -8 -T “artist=%a” -T “title=%t” -T “album=%g” -T “date=%y” -T “tracknumber=%n” -T “genre=%m” %s

TOC of the extracted CD

Track | Start | Length | Start sector | End sector
———————————————————
1 | 0:00.00 | 2:45.43 | 0 | 12417
2 | 2:45.43 | 3:19.16 | 12418 | 27358
3 | 6:04.59 | 3:16.32 | 27359 | 42090
4 | 9:21.16 | 2:58.52 | 42091 | 55492
5 | 12:19.68 | 3:32.30 | 55493 | 71422
6 | 15:52.23 | 3:15.25 | 71423 | 86072
7 | 19:07.48 | 2:52.02 | 86073 | 98974
8 | 21:59.50 | 3:56.68 | 98975 | 116742
9 | 25:56.43 | 2:41.46 | 116743 | 128863
10 | 28:38.14 | 2:41.56 | 128864 | 140994
11 | 31:19.70 | 2:20.74 | 140995 | 151568
12 | 33:40.69 | 2:49.30 | 151569 | 164273

Track 1

Filename E:\The Kids – 2007 – Anthology CD 04 – Black Out (1981)\01 – Johnny’s On The Dole.wav

Pre-gap length 0:00:02.00

Peak level 100.0 %
Track quality 100.0 %
Test CRC 180ED1D1
Copy CRC 180ED1D1
Accurately ripped (confidence 3) [5C35023A]
Copy OK

Track 2

Filename E:\The Kids – 2007 – Anthology CD 04 – Black Out (1981)\02 – Tomorrow.wav

Pre-gap length 0:00:05.50

Peak level 100.0 %
Track quality 99.9 %
Test CRC 48B8FB9E
Copy CRC 48B8FB9E
Accurately ripped (confidence 3) [201D9B57]
Copy OK

Track 3

Filename E:\The Kids – 2007 – Anthology CD 04 – Black Out (1981)\03 – Lonely Man.wav

Pre-gap length 0:00:03.72

Peak level 99.9 %
Track quality 100.0 %
Test CRC 917ED4E4
Copy CRC 917ED4E4
Accurately ripped (confidence 3) [04C87731]
Copy OK

Track 4

Filename E:\The Kids – 2007 – Anthology CD 04 – Black Out (1981)\04 – There Will Be No Next Time.wav

Pre-gap length 0:00:06.36

Peak level 98.7 %
Track quality 100.0 %
Test CRC BFF842A3
Copy CRC BFF842A3
Accurately ripped (confidence 3) [7ED2F1FC]
Copy OK

Track 5

Filename E:\The Kids – 2007 – Anthology CD 04 – Black Out (1981)\05 – Lone Rider.wav

Pre-gap length 0:00:03.72

Peak level 99.9 %
Track quality 100.0 %
Test CRC C1381825
Copy CRC C1381825
Accurately ripped (confidence 3) [BFCCDF5A]
Copy OK

Track 6

Filename E:\The Kids – 2007 – Anthology CD 04 – Black Out (1981)\06 – Wild Days Are Over.wav

Pre-gap length 0:00:06.76

Peak level 99.9 %
Track quality 100.0 %
Test CRC 10CD82BB
Copy CRC 10CD82BB
Accurately ripped (confidence 3) [E10651BC]
Copy OK

Track 7

Filename E:\The Kids – 2007 – Anthology CD 04 – Black Out (1981)\07 – Spend The Night With Me.wav

Pre-gap length 0:00:05.24

Peak level 99.9 %
Track quality 99.9 %
Test CRC 0B611EF1
Copy CRC 0B611EF1
Accurately ripped (confidence 3) [D1EC5889]
Copy OK

Track 8

Filename E:\The Kids – 2007 – Anthology CD 04 – Black Out (1981)\08 – Innocent Girl.wav

Pre-gap length 0:00:06.05

Peak level 99.9 %
Track quality 100.0 %
Test CRC C7900234
Copy CRC C7900234
Accurately ripped (confidence 3) [71ADB9F8]
Copy OK

Track 9

Filename E:\The Kids – 2007 – Anthology CD 04 – Black Out (1981)\09 – Don’t Say No.wav

Pre-gap length 0:00:03.72

Peak level 99.9 %
Track quality 100.0 %
Test CRC A70967BA
Copy CRC A70967BA
Accurately ripped (confidence 3) [DC323DE4]
Copy OK

Track 10

Filename E:\The Kids – 2007 – Anthology CD 04 – Black Out (1981)\10 – My Only Love.wav

Pre-gap length 0:00:06.53

Peak level 99.9 %
Track quality 100.0 %
Test CRC C3487BA7
Copy CRC C3487BA7
Accurately ripped (confidence 3) [920D83E6]
Copy OK

Track 11

Filename E:\The Kids – 2007 – Anthology CD 04 – Black Out (1981)\11 – It Doesn’t Matter Baby.wav

Pre-gap length 0:00:04.81

Peak level 99.9 %
Track quality 100.0 %
Test CRC 72ECE055
Copy CRC 72ECE055
Accurately ripped (confidence 3) [789ABB02]
Copy OK

Track 12

Filename E:\The Kids – 2007 – Anthology CD 04 – Black Out (1981)\12 – Another World.wav

Pre-gap length 0:00:05.32

Peak level 99.9 %
Track quality 100.0 %
Test CRC 3F5A1E48
Copy CRC 3F5A1E48
Accurately ripped (confidence 3) [0E8F33FB]
Copy OK

All tracks accurately ripped

No errors occurred

End of status report

REM GENRE Rock
REM DATE 2007
REM DISCID 96088E0C
REM COMMENT “ExactAudioCopy v0.99pb4”
FILE “01 – Johnny’s On The Dole.wav” WAVE
TRACK 01 AUDIO
INDEX 01 00:00:00
TRACK 02 AUDIO
INDEX 00 02:40:05
FILE “02 – Tomorrow.wav” WAVE
INDEX 01 00:00:00
TRACK 03 AUDIO
INDEX 00 03:15:37
FILE “03 – Lonely Man.wav” WAVE
INDEX 01 00:00:00
TRACK 04 AUDIO
INDEX 00 03:10:05
FILE “04 – There Will Be No Next Time.wav” WAVE
INDEX 01 00:00:00
TRACK 05 AUDIO
INDEX 00 02:54:73
FILE “05 – Lone Rider.wav” WAVE
INDEX 01 00:00:00
TRACK 06 AUDIO
INDEX 00 03:25:48
FILE “06 – Wild Days Are Over.wav” WAVE
INDEX 01 00:00:00
TRACK 07 AUDIO
INDEX 00 03:10:07
FILE “07 – Spend The Night With Me.wav” WAVE
INDEX 01 00:00:00
TRACK 08 AUDIO
INDEX 00 02:45:73
FILE “08 – Innocent Girl.wav” WAVE
INDEX 01 00:00:00
TRACK 09 AUDIO
INDEX 00 03:53:14
FILE “09 – Don’t Say No.wav” WAVE
INDEX 01 00:00:00
TRACK 10 AUDIO
INDEX 00 02:35:06
FILE “10 – My Only Love.wav” WAVE
INDEX 01 00:00:00
TRACK 11 AUDIO
INDEX 00 02:36:70
FILE “11 – It Doesn’t Matter Baby.wav” WAVE
INDEX 01 00:00:00
TRACK 12 AUDIO
INDEX 00 02:15:50
FILE “12 – Another World.wav” WAVE
INDEX 01 00:00:00

Leave a Reply

Your email address will not be published. Required fields are marked *

This site uses Akismet to reduce spam. Learn how your comment data is processed.