The Interrupters – The Interrupters (Deluxe Edition)




Artist: The Interrupters
Year: 2014
Genre: Ska
Notes: Discogs
Add. Notes: Deluxe Edition
Cover incl.: Yes
Encoder: FLAC
Bitrate: ~1100 kBit/s (44.1 kHz/16 Bit/s)
Log & Cue incl.: Yes
Size: 265,04 MB
Password: “slam” (without ” “)


All Downloads/Hosters are compatible

Download 1
Turbobit.net
Rapidgator.net
UploadEver.com
KatFile.com
UsersDrive.com
Download 2
Turbobit.net
Rapidgator.net
UploadEver.com
KatFile.com
UsersDrive.com
Download 3
Turbobit.net
Rapidgator.net
UploadEver.com
KatFile.com
UsersDrive.com

Tracklist:

1. Take Back The Power 
2. White Noise 
3. Can't Be Trusted 
4. Liberty 
5. Judge Not 
6. This Is The New Sound 
7. Family 
8. Easy On You 
9. A Friend Like Me 
10. Last Call 
11. Haven't Seen The Last Of Me
Bonus-Tracks:
12. The Metro
13. Treat The Youth Right

EAC-Log, CUE-Sheed & NFO:

Click to open spoiler
foobar2000 1.3.15 / Dynamic Range Meter 1.1.1
log date: 2018-07-11 01:21:58

——————————————————————————–
Analyzed: The Interrupters / The Interrupters (Deluxe Edition)
——————————————————————————–

DR Peak RMS Duration Track
——————————————————————————–
DR4 0.00 dB -5.37 dB 3:21 01-Take Back The Power
DR5 0.00 dB -5.77 dB 2:19 02-White Noise
DR4 0.00 dB -5.14 dB 1:54 03-Can’t Be Trusted
DR5 -0.01 dB -5.59 dB 1:55 04-Liberty
DR5 0.00 dB -7.00 dB 2:59 05-Judge Not
DR4 0.00 dB -5.86 dB 2:30 06-This Is The New Sound
DR5 -0.01 dB -6.62 dB 2:40 07-Family (feat. Tim Armstrong)
DR5 0.00 dB -5.94 dB 3:22 08-Easy On You
DR5 0.00 dB -6.02 dB 2:52 09-A Friend Like Me
DR5 0.00 dB -5.83 dB 2:06 10-Last Call
DR4 0.00 dB -5.82 dB 2:15 11-Haven’t Seen The Last Of Me
DR5 0.00 dB -6.17 dB 4:10 12-The Metro
DR5 0.00 dB -5.72 dB 3:10 13-Treat The Youth Right
——————————————————————————–

Number of tracks: 13
Official DR value: DR5

Samplerate: 44100 Hz
Channels: 2
Bits per sample: 16
Bitrate: 1056 kbps
Codec: FLAC
================================================================================

———————–

DON’T MODIFY THIS FILE

———————–

PERFORMER: auCDtect Task Manager, ver. 1.6.0 RC1 build 1.6.0.1
Copyright (c) 2008-2010 y-soft. All rights reserved
http://y-soft.org

ANALYZER: auCDtect: CD records authenticity detector, version 0.8.2
Copyright (c) 2004 Oleg Berngardt. All rights reserved.
Copyright (c) 2004 Alexander Djourik. All rights reserved.

FILE: 01. Take Back The Power.flac
Size: 26930247 Hash: 9A1E0377062087B4B0C47848263A88BF Accuracy: -m0
Conclusion: CDDA 100%
Signature: 7BA9686536423E122A01CAFFC374A56FD73E29D7
FILE: 02. White Noise.flac
Size: 18484657 Hash: 480C686F351A42C6DBD40DB9CE71B3EC Accuracy: -m0
Conclusion: CDDA 99%
Signature: CE6942533C54C582501F4DF25DBFE8542F24E7E1
FILE: 03. Can’t Be Trusted.flac
Size: 15299537 Hash: 539DEF4114DC08DB6A22AF256E8D5CB2 Accuracy: -m0
Conclusion: CDDA 99%
Signature: CB83F6A6D3B6D9D7FAB736DEB81B3E848E23B03C
FILE: 04. Liberty.flac
Size: 15854171 Hash: 8F672953E5C73CEE4811EA079DF750DE Accuracy: -m0
Conclusion: CDDA 99%
Signature: 84F6F99174AE255BD910160C50A76EAEB6B18648
FILE: 05. Judge Not.flac
Size: 22352283 Hash: B0AA79F48041D764CBA626A5608F7C4A Accuracy: -m0
Conclusion: CDDA 100%
Signature: 108A7A3A4D90C3168798450A7B51CCE0B5C4C0F3
FILE: 06. This Is The New Sound.flac
Size: 19057410 Hash: 4FB6BD81A303DA5129F7ADC06FAD3944 Accuracy: -m0
Conclusion: CDDA 100%
Signature: 7986BF4CE31857BD2E877451CE36A94AF550BC45
FILE: 07. Family (feat. Tim Armstrong).flac
Size: 20880242 Hash: CB5A6211C541D519815101DFD9074C13 Accuracy: -m0
Conclusion: CDDA 100%
Signature: 9B74A6D8927D1035B153047DD8DFD54438E822CD
FILE: 08. Easy On You.flac
Size: 26016824 Hash: 16D4A2F953FF009AA8F68135377832D7 Accuracy: -m0
Conclusion: CDDA 100%
Signature: 0AA401DEA7589BE89391D8245A79DEAEE3C323C4
FILE: 09. A Friend Like Me.flac
Size: 22830646 Hash: 354E0D6ADFC190941334617873633649 Accuracy: -m0
Conclusion: CDDA 100%
Signature: 4C28CDDA7A4A0EACDB6FF9070C853D165AD5DC2A
FILE: 10. Last Call.flac
Size: 16326757 Hash: 5E0FC360569C237FEA4948EDE6E2DD03 Accuracy: -m0
Conclusion: CDDA 100%
Signature: 78EE27D04237B586F92E80EF3C01806687448A42
FILE: 11. Haven’t Seen The Last Of Me.flac
Size: 17195438 Hash: 945D8E60E48FFE44F2B8C9D51B6825A9 Accuracy: -m0
Conclusion: CDDA 100%
Signature: 3E5A1F7A32FEEFEC3B3775FB58B8DF6F4FAB33D1
FILE: 12. The Metro.flac
Size: 31178068 Hash: 400F5C406C2F176A9F45E0EB3D4E0459 Accuracy: -m0
Conclusion: CDDA 100%
Signature: 4F9EC14CE2B9201AAAF46F4A49DC69A660821AEC
FILE: 13. Treat The Youth Right.flac
Size: 25303410 Hash: C4FB5E7C2284F58E5D43EC0D22F9B423 Accuracy: -m0
Conclusion: CDDA 99%
Signature: 5DE605AD0F804564CC95098EE4A16A392B66C06B


Leave a Reply

Your email address will not be published. Required fields are marked *

This site uses Akismet to reduce spam. Learn how your comment data is processed.