The Interrupters – Say It Out Loud




Artist: The Interrupters
Year: 2016
Genre: Ska
Notes: Discogs
Add. Notes:
Cover incl.: Yes
Encoder: FLAC
Bitrate: ~1000 kBit/s (44.1 kHz/16 Bit/s)
Log & Cue incl.: Yes
Size: 289,06 MB
Password: “slam” (without ” “)


All Downloads/Hosters are compatible

Download 1
Turbobit.net
Rapidgator.net
UploadEver.com
KatFile.com
UsersDrive.com
Download 2
Turbobit.net
Rapidgator.net
UploadEver.com
KatFile.com
UsersDrive.com
Download 3
Turbobit.net
Rapidgator.net
UploadEver.com
KatFile.com
UsersDrive.com

Tracklist:

1 - By My Side - 2:19
2 - She Got Arrested - 3:25
3 - Babylon - 3:16
4 - On A Turntable - 2:38
5 - The Prosecutor - 2:45
6 - Control - 2:41
7 - Phantom City - 3:54
8 - Media Sensation - 2:52
9 - You're Gonna Find A Way Out - 2:53
10 - Divide Us - 2:37
11 - The Valley - 2:17
12 - Good Things - 2:34
13 - Jenny Drinks - 2:54
14 - Loyal - 2:07

EAC-Log, CUE-Sheed & NFO:

Click to open spoiler
———————–

DON’T MODIFY THIS FILE

———————–

PERFORMER: auCDtect Task Manager, ver. 1.6.0 RC1 build 1.6.0.1
Copyright (c) 2008-2010 y-soft. All rights reserved
http://y-soft.org

ANALYZER: auCDtect: CD records authenticity detector, version 0.8.2
Copyright (c) 2004 Oleg Berngardt. All rights reserved.
Copyright (c) 2004 Alexander Djourik. All rights reserved.

FILE: 14. Loyal.flac
Size: 16644864 Hash: 9029C1EC2383DAAC628AF68754A9A768 Accuracy: -m0
Conclusion: CDDA 100%
Signature: 9CF7190CE7CFAE919C7BE038397F08D5FBAF1BB2
FILE: 13. Jenny Drinks.flac
Size: 21748304 Hash: 8FFA354E37998983ECE8FD26F611EA23 Accuracy: -m0
Conclusion: CDDA 99%
Signature: 61C36A21C909E08BA19ABAA70F0E346A164164BC
FILE: 12. Good Things.flac
Size: 19723040 Hash: 9BB78C9E227F6F16A00413895AC117D0 Accuracy: -m0
Conclusion: CDDA 100%
Signature: F06FEFC7AA9D11F587E2C924CA5C020276CA2770
FILE: 11. The Valley.flac
Size: 17319321 Hash: EBD902A71B9A5A59E49C8885E73160EC Accuracy: -m0
Conclusion: CDDA 100%
Signature: A53ADF739C7CF1A4CD27D4A8674998F549841CA5
FILE: 10. Divide Us.flac
Size: 20435670 Hash: 08FBC0C8E0E177C930E8822E46871F13 Accuracy: -m0
Conclusion: CDDA 99%
Signature: C3C7AEAEB109631AF740D6EEFFC37F7810AF9261
FILE: 09. You’re Gonna Find A Way Out.flac
Size: 22569727 Hash: 1A5E21059FC4DBA260FC37F67E782ED6 Accuracy: -m0
Conclusion: CDDA 100%
Signature: 388367F0CCACE3DC79A73F85D58F91EF8C4DCA70
FILE: 08. Media Sensation.flac
Size: 22265039 Hash: D42218FED87B3249FAE5F3FE04336362 Accuracy: -m0
Conclusion: CDDA 100%
Signature: B18202C8CC3BAB4BEC56E28F29AADB1DEFBD0FCC
FILE: 07. Phantom City (feat. Tim Timebomb).flac
Size: 29199714 Hash: FB95B7D99EAF06185FF8C75BE7136CBC Accuracy: -m0
Conclusion: CDDA 100%
Signature: 6DA498FD7174CAA77CBF2B9334246F2E88197503
FILE: 06. Control.flac
Size: 20479751 Hash: 5F46BDCD8999A1BAA72EC15F81CAA3DE Accuracy: -m0
Conclusion: CDDA 100%
Signature: 0874C7BBADEF0AA39716B3EBE37E7A77B4C5EA64
FILE: 05. The Prosecutor.flac
Size: 22025799 Hash: A1BCBAF51AFC85789A6276A08F165C0D Accuracy: -m0
Conclusion: CDDA 100%
Signature: C8A10C233D45125A9C95BC9B75E7CAAC7163BB6D
FILE: 04. On A Turntable.flac
Size: 20781759 Hash: 932A9F7497A9826B684EE0808955B1B7 Accuracy: -m0
Conclusion: CDDA 100%
Signature: 712E69AFEDFD1CFC09C07221C6E8177577C19D86
FILE: 03. Babylon.flac
Size: 25617449 Hash: 13D8E2477463405494C9A62CE59439B5 Accuracy: -m0
Conclusion: CDDA 100%
Signature: A6587943DE0C5BB9DA0422F53B469FDBFB909645
FILE: 02. She Got Arrested.flac
Size: 26547345 Hash: 543A70AD7726E7467C33FD1516E20B22 Accuracy: -m0
Conclusion: CDDA 99%
Signature: 505F35C59C464A95D0C5EAECC029936364595362
FILE: 01. By My Side.flac
Size: 17664221 Hash: C631C1E7FD5C01E29DA6AC19690A2A2B Accuracy: -m0
Conclusion: CDDA 99%
Signature: D25D141C0E4E29448D8D74B3E1B7DEAD5259B96F

foobar2000 1.3.15 / Dynamic Range Meter 1.1.1
log date: 2018-07-11 01:23:49

——————————————————————————–
Analyzed: The Interrupters / Say It Out Loud
——————————————————————————–

DR Peak RMS Duration Track
——————————————————————————–
DR5 0.00 dB -6.60 dB 2:20 01-By My Side
DR6 0.00 dB -7.48 dB 3:26 02-She Got Arrested
DR6 0.00 dB -7.56 dB 3:17 03-Babylon
DR5 0.00 dB -6.22 dB 2:39 04-On A Turntable
DR6 0.00 dB -7.36 dB 2:46 05-The Prosecutor
DR5 0.00 dB -6.38 dB 2:42 06-Control
DR5 0.00 dB -7.62 dB 3:55 07-Phantom City (feat. Tim Timebomb)
DR5 0.00 dB -6.44 dB 2:53 08-Media Sensation
DR6 0.00 dB -7.57 dB 2:54 09-You’re Gonna Find A Way Out
DR6 0.00 dB -7.25 dB 2:37 10-Divide Us
DR7 0.00 dB -8.41 dB 2:17 11-The Valley
DR6 0.00 dB -7.25 dB 2:34 12-Good Things
DR6 0.00 dB -7.30 dB 2:55 13-Jenny Drinks
DR6 0.00 dB -7.29 dB 2:08 14-Loyal
——————————————————————————–

Number of tracks: 14
Official DR value: DR6

Samplerate: 44100 Hz
Channels: 2
Bits per sample: 16
Bitrate: 1037 kbps
Codec: FLAC
================================================================================


Leave a Reply

Your email address will not be published. Required fields are marked *

This site uses Akismet to reduce spam. Learn how your comment data is processed.