The Interrupters – Fight the Good Fight




Artist: The Interrupters
Year: 2018
Genre: Ska
Notes: Discogs
Add. Notes:
Cover incl.: Yes
Encoder: FLAC
Bitrate: ~1000 kBit/s (44.1 kHz/16 Bit/s)
Log & Cue incl.: Yes
Size: 240,45 MB
Password: “slam” (without ” “)


All Downloads/Hosters are compatible

Download 1
Turbobit.net
Rapidgator.net
KatFile.com
UploadRar.com
Download 2
Turbobit.net
Rapidgator.net
KatFile.com
UploadRar.com

Tracklist:

1 - Title Holder - 2:42
2 - So Wrong - 2:30
3 - She's Kerosene - 2:50
4 - Leap Of Faith - 3:16
5 - Got Each Other - 2:41
6 - Broken World - 2:42
7 - Gave You Everything - 3:06
8 - Not Personal - 2:05
9 - Outrage - 1:51
10 - Rumours And Gossip - 2:40
11 - Be Gone - 2:32
12 - Room With A View - 2:36

EAC-Log, CUE-Sheed & NFO:

Click to open spoiler
foobar2000 1.3.15 / Dynamic Range Meter 1.1.1
log date: 2018-07-11 01:24:19

——————————————————————————–
Analyzed: The Interrupters / Fight the Good Fight
——————————————————————————–

DR Peak RMS Duration Track
——————————————————————————–
DR7 -0.02 dB -7.57 dB 2:42 01-Title Holder
DR5 -0.02 dB -6.55 dB 2:32 02-So Wrong
DR5 -0.02 dB -6.64 dB 2:50 03-She’s Kerosene
DR6 -0.02 dB -7.20 dB 3:17 04-Leap of Faith
DR6 -0.02 dB -7.03 dB 2:42 05-Got Each Other (feat. Rancid)
DR6 -0.02 dB -7.09 dB 2:42 06-Broken World
DR6 -0.02 dB -6.45 dB 3:06 07-Gave You Everything
DR6 -0.02 dB -7.14 dB 2:06 08-Not Personal
DR5 -0.02 dB -6.93 dB 1:51 09-Outrage
DR6 -0.02 dB -7.20 dB 2:40 10-Rumors and Gossip
DR6 -0.02 dB -6.93 dB 2:33 11-Be Gone
DR6 -0.02 dB -8.01 dB 2:35 12-Room With a View
——————————————————————————–

Number of tracks: 12
Official DR value: DR6

Samplerate: 44100 Hz
Channels: 2
Bits per sample: 16
Bitrate: 957 kbps
Codec: FLAC
================================================================================

———————–

DON’T MODIFY THIS FILE

———————–

PERFORMER: auCDtect Task Manager, ver. 1.6.0 RC1 build 1.6.0.1
Copyright (c) 2008-2010 y-soft. All rights reserved
http://y-soft.org

ANALYZER: auCDtect: CD records authenticity detector, version 0.8.2
Copyright (c) 2004 Oleg Berngardt. All rights reserved.
Copyright (c) 2004 Alexander Djourik. All rights reserved.

FILE: 12. Room With a View.flac
Size: 18590421 Hash: CB419F2339F9CF1D6ACCE7EBB32B3B45 Accuracy: -m0
Conclusion: CDDA 100%
Signature: B1060F402EE36FFE5597E3E80D59DF1153129D2A
FILE: 11. Be Gone.flac
Size: 20511698 Hash: D3D546ACDC2267AE42CC9C3CFC015F1F Accuracy: -m0
Conclusion: CDDA 100%
Signature: 0CDDC066C1E8911D29180A61E4A4A32D1E09EC14
FILE: 10. Rumors and Gossip.flac
Size: 21749167 Hash: 3733B4DCDE6F4CD500A8D2EE31770C67 Accuracy: -m0
Conclusion: CDDA 100%
Signature: AA62449DA68C32A4605D1B398943F734F19DDAF1
FILE: 09. Outrage.flac
Size: 15164924 Hash: E451885600BF1A29E1B1768D1EE7FAFB Accuracy: -m0
Conclusion: CDDA 100%
Signature: 8E04E1288A6111B2EC4030F8284341D593FE3D8A
FILE: 08. Not Personal.flac
Size: 17217407 Hash: 48EF8F81247282305F9DABF7E453FF95 Accuracy: -m0
Conclusion: CDDA 100%
Signature: 5281C2496DFC26CFC632DFE10210C627C6785770
FILE: 07. Gave You Everything.flac
Size: 25402804 Hash: 935B34EE791C6E3D4754F340690B2848 Accuracy: -m0
Conclusion: CDDA 100%
Signature: 05CC7BCBDCC7564858184D00071086441B8A4E58
FILE: 06. Broken World.flac
Size: 22429445 Hash: 4B32EF9216273550F5A2F323DA197910 Accuracy: -m0
Conclusion: CDDA 99%
Signature: 8F30B9AF4AF8F214DE7BA2E898B3458AF5960528
FILE: 05. Got Each Other (feat. Rancid).flac
Size: 21422523 Hash: A494D5BE0374F3E71A1528F0BFEC44D8 Accuracy: -m0
Conclusion: CDDA 100%
Signature: 69C5B53CA5C4EC7B0990B0DA5193F9905749D1C8
FILE: 04. Leap of Faith.flac
Size: 26286584 Hash: 09813ADB50C56B6D1BADB91DE707266A Accuracy: -m0
Conclusion: CDDA 100%
Signature: D3F258EF90DF6019621DA5921C54A020B925DD36
FILE: 03. She’s Kerosene.flac
Size: 22511383 Hash: B183484BAEAD753D03C7CB407C8AEAC2 Accuracy: -m0
Conclusion: CDDA 99%
Signature: A639C8F6E475F6525A40554A8286AF7AE5DB0FC0
FILE: 02. So Wrong.flac
Size: 19735257 Hash: 9802910243145DE96590D7680F128727 Accuracy: -m0
Conclusion: CDDA 99%
Signature: CFA064697C9F91B3A3F442BE268FC813EBF60814
FILE: 01. Title Holder.flac
Size: 21023576 Hash: 3504C0A8345869B3A4D97D484705EED8 Accuracy: -m0
Conclusion: CDDA 99%
Signature: 8D61EABDFB989B754D1DF8153389EF06DBED2EB6


Leave a Reply

Your email address will not be published. Required fields are marked *

Enter the text from the image below
 

This site uses Akismet to reduce spam. Learn how your comment data is processed.