The Glove – Blue Sunshine (Remastered Deluxe Edition)




No Cover available

Artist: The Glove
Year: 2006
Genre: Rock
Notes: Discogs
Add. Notes: Remastered Deluxe Edition
Watch Songs on: YouTube
Cover incl.: Yes
Encoder: FLAC
Bitrate: ~800 kBit/s (44.1 kHz/16 Bit/s)
Log & Cue incl.: Yes/Yes
Size: 976 MB
Password: “slam” (without ” “)


All Downloads/Hosters are compatible

Download 1
KatFile.com
Turbobit.net
Rapidgator.net
FileFactory.com
Download 2
KatFile.com
Turbobit.net
Rapidgator.net
FileFactory.com

Tracklist:

The Original Album
1-1 Like An Animal 4:44
1-2 Looking Glass Girl 4:56
1-3 Sex-Eye-Make-Up 4:22
1-4 Mr. Alphabet Says 3:50
1-5 A Blues In Drag 3:12
1-6 Punish Me With Kisses 3:40
1-7 This Green City 4:34
1-8 Orgy 3:19
1-9 Perfect Murder 4:27
1-10 Relax 6:13
Bonus Tracks (1983)
1-11 The Man From Nowhere (Original Instrumental Mix) 
1:46
1-12 Mouth To Mouth (Landray Vocal Mix) 5:40
1-13 Punish Me With Kisses (Mike Hedges Mix) 3:30
1-14 The Tightrope (Original Instrumental Mix) 3:22
1-15 Like An Animal (12" Club What Club? Mix) 5:38

Rarities (1983)
2-1 Like An Animal (RS Vocal Demo) 4:38
2-2 Looking Glass Girl (RS Vocal Demo) 4:28
2-3 Sex-Eye-Make-Up (RS Vocal Demo) 4:27
2-4 Mr. Alphabet Says (Alt RS Vocal Demo) 4:06
2-5 A Blues In Drag (Alt RS Vocal Demo) 3:11
2-6 Punish Me With Kisses (RS Vocal Demo) 3:30
2-7 This Green City (RS Vocal Demo) 4:31
2-8 Orgy (RS Vocal Demo) 3:41
2-9 Perfect Murder (Alt RS Vocal Demo) 4:04
2-10 Relax (Alt RS Vocal Demo) 6:15
2-11 The Man From Nowhere (Alt Instrumental Mix) 1:47
2-12 Mouth To Mouth (RS Vocal Demo) 6:06
2-13 Opened The Box (A Waltz) (RS Vocal Demo) 1:29
2-14 The Tightrope (Almost Time) (RS Vocal Demo) 3:14
2-15 And All Around Us The Mermaids Sang (AKA 
Torment) (RS Vocal Demo) 3:26
2-16 Holiday 80 (Original Instrumental Mix) 1:45

EAC-Log, CUE-Sheed & NFO:

Click to open spoiler
Exact Audio Copy V0.99 prebeta 5 from 4. May 2009

EAC extraction logfile from 29. August 2010, 13:59

The Glove / Blue Sunshine (Deluxe Edition) (Disc 1)

Used drive : TSSTcorpCDDVDW TS-L633A Adapter: 0 ID: 1

Read mode : Secure
Utilize accurate stream : Yes
Defeat audio cache : Yes
Make use of C2 pointers : No

Read offset correction : 6
Overread into Lead-In and Lead-Out : No
Fill up missing offset samples with silence : Yes
Delete leading and trailing silent blocks : No
Null samples used in CRC calculations : Yes
Used interface : Native Win32 interface for Win NT & 2000

Used output format : User Defined Encoder
Selected bitrate : 1024 kBit/s
Quality : High
Add ID3 tag : No
Command line compressor : C:\Program Files\Exact Audio Copy\Flac\flac.exe
Additional command line options : -8 -V %s

TOC of the extracted CD

Track | Start | Length | Start sector | End sector
———————————————————
1 | 0:01.00 | 4:44.60 | 75 | 21434
2 | 4:45.60 | 4:56.33 | 21435 | 43667
3 | 9:42.18 | 4:22.72 | 43668 | 63389
4 | 14:05.15 | 3:50.15 | 63390 | 80654
5 | 17:55.30 | 3:12.33 | 80655 | 95087
6 | 21:07.63 | 3:40.60 | 95088 | 111647
7 | 24:48.48 | 4:34.52 | 111648 | 132249
8 | 29:23.25 | 3:19.36 | 132250 | 147210
9 | 32:42.61 | 4:27.50 | 147211 | 167285
10 | 37:10.36 | 6:13.30 | 167286 | 195290
11 | 43:23.66 | 1:46.54 | 195291 | 203294
12 | 45:10.45 | 5:40.24 | 203295 | 228818
13 | 50:50.69 | 3:30.12 | 228819 | 244580
14 | 54:21.06 | 3:22.12 | 244581 | 259742
15 | 57:43.18 | 5:38.72 | 259743 | 285164

Range status and errors

Selected range

Filename C:\music\Glove.Deluxe.CD1.wav

Peak level 100.0 %
Range quality 100.0 %
Test CRC 1BA62E93
Copy CRC 1BA62E93
Copy OK

No errors occurred

AccurateRip summary

Track 1 accurately ripped (confidence 9) [1921AE3B]
Track 2 accurately ripped (confidence 9) [90F40800]
Track 3 accurately ripped (confidence 9) [864905F0]
Track 4 accurately ripped (confidence 9) [00E17E1C]
Track 5 accurately ripped (confidence 9) [83304FCE]
Track 6 accurately ripped (confidence 9) [B5B08E35]
Track 7 accurately ripped (confidence 9) [CC8682C3]
Track 8 accurately ripped (confidence 9) [E8376DEF]
Track 9 accurately ripped (confidence 9) [5D3CEA2E]
Track 10 accurately ripped (confidence 9) [467FC13C]
Track 11 accurately ripped (confidence 9) [35966728]
Track 12 accurately ripped (confidence 9) [BC29A0B0]
Track 13 accurately ripped (confidence 9) [C2F256CD]
Track 14 accurately ripped (confidence 9) [EB08C0CD]
Track 15 accurately ripped (confidence 9) [D765C344]

All tracks accurately ripped

End of status report

Exact Audio Copy V0.99 prebeta 5 from 4. May 2009

EAC extraction logfile from 29. August 2010, 16:14

The Glove / Blue Sunshine (Deluxe Edition) (Disc 2)

Used drive : TSSTcorpCDDVDW TS-L633A Adapter: 0 ID: 1

Read mode : Secure
Utilize accurate stream : Yes
Defeat audio cache : Yes
Make use of C2 pointers : No

Read offset correction : 6
Overread into Lead-In and Lead-Out : No
Fill up missing offset samples with silence : Yes
Delete leading and trailing silent blocks : No
Null samples used in CRC calculations : Yes
Used interface : Native Win32 interface for Win NT & 2000

Used output format : User Defined Encoder
Selected bitrate : 1024 kBit/s
Quality : High
Add ID3 tag : No
Command line compressor : C:\Program Files\Exact Audio Copy\Flac\flac.exe
Additional command line options : -8 -V %s

TOC of the extracted CD

Track | Start | Length | Start sector | End sector
———————————————————
1 | 0:00.00 | 4:38.34 | 0 | 20883
2 | 4:38.34 | 4:28.41 | 20884 | 41024
3 | 9:07.00 | 4:27.00 | 41025 | 61049
4 | 13:34.00 | 4:06.12 | 61050 | 79511
5 | 17:40.12 | 3:11.51 | 79512 | 93887
6 | 20:51.63 | 3:30.48 | 93888 | 109685
7 | 24:22.36 | 4:31.72 | 109686 | 130082
8 | 28:54.33 | 3:41.09 | 130083 | 146666
9 | 32:35.42 | 4:04.42 | 146667 | 165008
10 | 36:40.09 | 6:15.69 | 165009 | 193202
11 | 42:56.03 | 1:47.45 | 193203 | 201272
12 | 44:43.48 | 6:06.44 | 201273 | 228766
13 | 50:50.17 | 1:29.31 | 228767 | 235472
14 | 52:19.48 | 3:14.45 | 235473 | 250067
15 | 55:34.18 | 3:26.57 | 250068 | 265574
16 | 59:01.00 | 1:45.27 | 265575 | 273476

Range status and errors

Selected range

Filename C:\music\Glove.Deluxe.CD2.wav

Peak level 100.0 %
Range quality 100.0 %
Test CRC 06FD6CCD
Copy CRC 06FD6CCD
Copy OK

No errors occurred

AccurateRip summary

Track 1 accurately ripped (confidence 9) [1D27B771]
Track 2 accurately ripped (confidence 9) [1315BE59]
Track 3 accurately ripped (confidence 9) [E3750857]
Track 4 accurately ripped (confidence 9) [4DC945A3]
Track 5 accurately ripped (confidence 9) [E28F5365]
Track 6 accurately ripped (confidence 9) [F2116165]
Track 7 accurately ripped (confidence 9) [CEE01858]
Track 8 accurately ripped (confidence 9) [79A8F59E]
Track 9 accurately ripped (confidence 9) [97867C08]
Track 10 accurately ripped (confidence 9) [0CFE67AE]
Track 11 accurately ripped (confidence 9) [72128BC2]
Track 12 accurately ripped (confidence 9) [D573B06B]
Track 13 accurately ripped (confidence 9) [2D383B94]
Track 14 accurately ripped (confidence 9) [F188A576]
Track 15 accurately ripped (confidence 9) [D7DD2648]
Track 16 accurately ripped (confidence 9) [705E3761]

All tracks accurately ripped

End of status report

REM GENRE Alternative
REM DATE 2006
REM DISCID DA0ED90F
REM COMMENT “ExactAudioCopy v0.99pb5”
PERFORMER “The Glove”
TITLE “Blue Sunshine (Deluxe Edition) (Disc 1)”
FILE “Glove.Deluxe.CD1.flac” WAVE
TRACK 01 AUDIO
TITLE “Like An Animal”
PERFORMER “The Glove”
INDEX 00 00:00:00
INDEX 01 00:01:00
TRACK 02 AUDIO
TITLE “Looking Glass Girl”
PERFORMER “The Glove”
INDEX 01 04:45:60
TRACK 03 AUDIO
TITLE “Sex-Eye-Make-Up”
PERFORMER “The Glove”
INDEX 01 09:42:18
TRACK 04 AUDIO
TITLE “Mr. Alphabet Says”
PERFORMER “The Glove”
INDEX 01 14:05:15
TRACK 05 AUDIO
TITLE “A Blues In Drag”
PERFORMER “The Glove”
INDEX 01 17:55:30
TRACK 06 AUDIO
TITLE “Punish Me With Kisses”
PERFORMER “The Glove”
INDEX 01 21:07:63
TRACK 07 AUDIO
TITLE “This Green City”
PERFORMER “The Glove”
INDEX 01 24:48:48
TRACK 08 AUDIO
TITLE “Orgy”
PERFORMER “The Glove”
INDEX 01 29:23:25
TRACK 09 AUDIO
TITLE “Perfect Murder”
PERFORMER “The Glove”
INDEX 01 32:42:61
TRACK 10 AUDIO
TITLE “Relax”
PERFORMER “The Glove”
INDEX 01 37:10:36
TRACK 11 AUDIO
TITLE “The Man From Nowhere (Original Instrumental Mix)”
PERFORMER “The Glove”
INDEX 00 43:17:35
INDEX 01 43:23:66
TRACK 12 AUDIO
TITLE “Mouth To Mouth (Landray Vocal Mix)”
PERFORMER “The Glove”
INDEX 00 45:08:50
INDEX 01 45:10:45
TRACK 13 AUDIO
TITLE “Punish Me With Kisses (Mike Hedges Mix)”
PERFORMER “The Glove”
INDEX 00 50:49:47
INDEX 01 50:50:69
TRACK 14 AUDIO
TITLE “The Tightrope (Original Instrumental Mix)”
PERFORMER “The Glove”
INDEX 00 54:19:65
INDEX 01 54:21:06
TRACK 15 AUDIO
TITLE “Like An Animal (12” Club What Club? Mix)”
PERFORMER “The Glove”
INDEX 00 57:41:42
INDEX 01 57:43:18

REM GENRE Alternative
REM DATE 2006
REM DISCID D90E3E10
REM COMMENT “ExactAudioCopy v0.99pb5”
PERFORMER “The Glove”
TITLE “Blue Sunshine (Deluxe Edition) (Disc 2)”
FILE “Glove.Deluxe.CD2.flac” WAVE
TRACK 01 AUDIO
TITLE “Like An Animal (RS Vocal Demo)”
PERFORMER “The Glove”
INDEX 01 00:00:00
TRACK 02 AUDIO
TITLE “Looking Glass Girl (RS Vocal Demo)”
PERFORMER “The Glove”
INDEX 00 04:36:62
INDEX 01 04:38:34
TRACK 03 AUDIO
TITLE “Sex-Eye-Make-Up (RS Vocal Demo)”
PERFORMER “The Glove”
INDEX 00 09:05:44
INDEX 01 09:07:00
TRACK 04 AUDIO
TITLE “Mr. Alphabet Says (Alt RS Vocal Demo)”
PERFORMER “The Glove”
INDEX 00 13:32:62
INDEX 01 13:34:00
TRACK 05 AUDIO
TITLE “A Blues In Drag (Alternative RS Vocal Demo)”
PERFORMER “The Glove”
INDEX 00 17:38:74
INDEX 01 17:40:12
TRACK 06 AUDIO
TITLE “Punish Me With Kisses (RS Vocal Demo)”
PERFORMER “The Glove”
INDEX 00 20:50:47
INDEX 01 20:51:63
TRACK 07 AUDIO
TITLE “This Green City (RS Vocal Demo)”
PERFORMER “The Glove”
INDEX 00 24:21:26
INDEX 01 24:22:36
TRACK 08 AUDIO
TITLE “Orgy (RS Vocal Demo)”
PERFORMER “The Glove”
INDEX 00 28:53:23
INDEX 01 28:54:33
TRACK 09 AUDIO
TITLE “Perfect Murder (Alternative RS Vocal Demo)”
PERFORMER “The Glove”
INDEX 00 32:34:17
INDEX 01 32:35:42
TRACK 10 AUDIO
TITLE “Relax (Alternative RS Vocal Demo)”
PERFORMER “The Glove”
INDEX 00 36:38:14
INDEX 01 36:40:09
TRACK 11 AUDIO
TITLE “The Man From Nowhere (Alternative Instrumental Mix)”
PERFORMER “The Glove”
INDEX 00 42:54:17
INDEX 01 42:56:03
TRACK 12 AUDIO
TITLE “Mouth To Mouth (RS Vocal Demo)”
PERFORMER “The Glove”
INDEX 00 44:42:29
INDEX 01 44:43:48
TRACK 13 AUDIO
TITLE “Opened The Box (A Waltz) – (RS Vocal Demo)”
PERFORMER “The Glove”
INDEX 00 50:48:56
INDEX 01 50:50:17
TRACK 14 AUDIO
TITLE “The Tightrope (Almost Time) – (RS Vocal Demo)”
PERFORMER “The Glove”
INDEX 00 52:18:32
INDEX 01 52:19:48
TRACK 15 AUDIO
TITLE “And All Around Us The Mermaids Sang (aka ”Torment”) – (RS Vocal Demo)”
PERFORMER “The Glove”
INDEX 00 55:33:38
INDEX 01 55:34:18
TRACK 16 AUDIO
TITLE “Holiday 80 (Original Instrumental Mix)”
PERFORMER “The Glove”
INDEX 00 58:59:59
INDEX 01 59:01:00


Leave a Reply

Your email address will not be published. Required fields are marked *

Enter the text from the image below
 

This site uses Akismet to reduce spam. Learn how your comment data is processed.