The Glove – Blue Sunshine (Reissue)




No Cover available

Artist: The Glove
Year: 1983/1990
Genre: Rock
Notes: Discogs
Add. Notes: Reissue
Watch Songs on: YouTube
Cover incl.: Yes
Encoder: FLAC
Bitrate: ~800 kBit/s (44.1 kHz/16 Bit/s)
Log & Cue incl.: Yes/Yes
Size: 403,6 MB
Password: “slam” (without ” “)


All Downloads/Hosters are compatible

Download 1
KatFile.com
Turbobit.net
Rapidgator.net
FileFactory.com
Download 2
KatFile.com
Turbobit.net
Rapidgator.net
FileFactory.com

Tracklist:

1 Like An Animal 4:44
2 Looking Glass Girl 4:56
3 Sex-Eye-Make-Up 4:24
4 Mr. Alphabet Says 3:50
5 A Blues In Drag 3:12
6 Punish Me With Kisses 3:40
7 This Green City 4:34
8 Orgy 3:19
9 Perfect Murder 4:28
10 Relax 6:03

Reissue Bonus:
11 Mouth To Mouth 5:35
12 The Tightrope 3:12
13 Like An Animal (Club? What Club) 6:35

EAC-Log, CUE-Sheed & NFO:

Click to open spoiler
Exact Audio Copy V0.99 prebeta 5 from 4. May 2009

EAC extraction logfile from 29. August 2010, 19:38

The Glove / Blue Sunshine

Used drive : TSSTcorpCDDVDW TS-L633A Adapter: 0
ID: 1

Read mode : Secure
Utilize accurate stream : Yes
Defeat audio cache : Yes
Make use of C2 pointers : No

Read offset correction : 6
Overread into Lead-In and Lead-Out : No
Fill up missing offset samples with silence : Yes
Delete leading and trailing silent blocks : No
Null samples used in CRC calculations : Yes
Used interface : Native Win32 interface
for Win NT & 2000

Used output format : User Defined Encoder
Selected bitrate : 1024 kBit/s
Quality : High
Add ID3 tag : No
Command line compressor : C:\Program Files\Exact
Audio Copy\Flac\flac.exe
Additional command line options : -8 -V %s

TOC of the extracted CD

Track | Start | Length | Start sector | End sector
———————————————————
1 | 0:00.33 | 4:44.25 | 33 | 21357
2 | 4:44.58 | 4:56.30 | 21358 | 43587
3 | 9:41.13 | 4:24.02 | 43588 | 63389
4 | 14:05.15 | 3:50.28 | 63390 | 80667
5 | 17:55.43 | 3:12.10 | 80668 | 95077
6 | 21:07.53 | 3:40.62 | 95078 | 111639
7 | 24:48.40 | 4:34.58 | 111640 | 132247
8 | 29:23.23 | 3:19.40 | 132248 | 147212
9 | 32:42.63 | 4:28.07 | 147213 | 167319
10 | 37:10.70 | 6:03.45 | 167320 | 194589
11 | 43:14.40 | 5:35.73 | 194590 | 219787
12 | 48:50.38 | 3:12.45 | 219788 | 234232
13 | 52:03.08 | 6:35.25 | 234233 | 263882

Range status and errors

Selected range

Filename C:\music\Blue.Sunshine.wav

Peak level 100.0 %
Range quality 99.9 %
Test CRC 3E97C13A
Copy CRC 3E97C13A
Copy OK

No errors occurred

AccurateRip summary

Track 1 accurately ripped (confidence 18) [3343E2B0]
Track 2 accurately ripped (confidence 18) [8BB00DEB]
Track 3 accurately ripped (confidence 18) [43E9F8AA]
Track 4 accurately ripped (confidence 18) [2538945C]
Track 5 accurately ripped (confidence 18) [68017BE2]
Track 6 accurately ripped (confidence 18) [3C1133CA]
Track 7 accurately ripped (confidence 18) [BA09945C]
Track 8 accurately ripped (confidence 18) [3D14FAE1]
Track 9 accurately ripped (confidence 17) [2AA36310]
Track 10 accurately ripped (confidence 18) [A379B3F8]
Track 11 accurately ripped (confidence 18) [615EBE8C]
Track 12 accurately ripped (confidence 18) [3E363C69]
Track 13 accurately ripped (confidence 18) [B9138F29]

All tracks accurately ripped

End of status report

REM GENRE Alternative
REM DATE 1983
REM DISCID C50DBE0D
REM COMMENT “ExactAudioCopy v0.99pb5”
PERFORMER “The Glove”
TITLE “Blue Sunshine”
FILE “Blue.Sunshine.flac” WAVE
TRACK 01 AUDIO
TITLE “Like An Animal”
PERFORMER “The Glove”
INDEX 00 00:00:00
INDEX 01 00:00:33
TRACK 02 AUDIO
TITLE “Looking Glass Girl”
PERFORMER “The Glove”
INDEX 01 04:44:58
TRACK 03 AUDIO
TITLE “Sex-Eye-Make-Up”
PERFORMER “The Glove”
INDEX 01 09:41:13
TRACK 04 AUDIO
TITLE “Mr. Alphabet Says”
PERFORMER “The Glove”
INDEX 01 14:05:15
TRACK 05 AUDIO
TITLE “A Blues In Drag”
PERFORMER “The Glove”
INDEX 01 17:55:43
TRACK 06 AUDIO
TITLE “Punish Me With Kisses”
PERFORMER “The Glove”
INDEX 01 21:07:53
TRACK 07 AUDIO
TITLE “This Green City”
PERFORMER “The Glove”
INDEX 01 24:48:40
TRACK 08 AUDIO
TITLE “Orgy”
PERFORMER “The Glove”
INDEX 01 29:23:23
TRACK 09 AUDIO
TITLE “Perfect Murder”
PERFORMER “The Glove”
INDEX 01 32:42:63
TRACK 10 AUDIO
TITLE “Relax”
PERFORMER “The Glove”
INDEX 01 37:10:70
TRACK 11 AUDIO
TITLE “Mouth To Mouth”
PERFORMER “The Glove”
INDEX 01 43:14:40
TRACK 12 AUDIO
TITLE “The Tightrope”
PERFORMER “The Glove”
INDEX 01 48:50:38
TRACK 13 AUDIO
TITLE “Like An Animal (Club? What Club?)”
PERFORMER “The Glove”
INDEX 01 52:03:08


Leave a Reply

Your email address will not be published. Required fields are marked *

This site uses Akismet to reduce spam. Learn how your comment data is processed.