The Faction – Collection 2 Uncollectable




Artist: The Faction
Year: 2001
Genre: Hardcore
Notes: Discogs
Add. Notes:
Cover incl.: Yes
Encoder: FLAC
Bitrate: ~900 kBit/s (44.1 kHz/16 Bit/s)
Log & Cue incl.: Yes
Size: 389,33 MB
Password: “slam” (without ” “)


All Downloads/Hosters are compatible

Download 1
Turbobit.net
Rapidgator.net
UploadEver.com
KatFile.com
UsersDrive.com
Download 2
Turbobit.net
Rapidgator.net
UploadEver.com
KatFile.com
UsersDrive.com
Download 3
Turbobit.net
Rapidgator.net
UploadEver.com
KatFile.com
UsersDrive.com

Tracklist:

1. You Are Here (1985)
2. Terror In The Streets (1985)
3. A.U.K. (1983)
4. Eternal Plan (1983)
5. Black Balled (1983) 
6. Demons (1984) 
7. Change Of Pace (1983)
8. The Brain (1984)
9. Running Amok (1983)
10. Beyond The Mirror (1983)
11. It Makes Me Sick (1982 
12. Me (1982)
Live At CBGB's 1985
13. Tongue Like A Battering Ram
14. Being Watched
15. Corpse In Disguise
16. Pegged For Life
17. Not Mine
18. Skate & Destroy
19. Deathless
20. Dark Room 
21. Why Save The Whales?
22. I Decide For Me

EAC-Log, CUE-Sheed & NFO:

Click to open spoiler
Exact Audio Copy V0.99 prebeta 5 from 4. May 2009

EAC extraction logfile from 2. February 2011, 20:47

The Faction / Collection 2: Uncollectable

Used drive : PLDS DVD+-RW DL-8ATS Adapter: 1 ID: 0

Read mode : Secure
Utilize accurate stream : Yes
Defeat audio cache : Yes
Make use of C2 pointers : No

Read offset correction : 6
Overread into Lead-In and Lead-Out : No
Fill up missing offset samples with silence : Yes
Delete leading and trailing silent blocks : No
Null samples used in CRC calculations : Yes
Used interface : Native Win32 interface for Win NT & 2000
Gap handling : Appended to previous track

Used output format : User Defined Encoder
Selected bitrate : 320 kBit/s
Quality : High
Add ID3 tag : No
Command line compressor : C:\Program Files (x86)\Exact Audio Copy\Flac\flac.exe
Additional command line options : -V -8 -T “artist=%a” -T “title=%t” -T “album=%g” -T “date=%y” -T “tracknumber=%n” -T “genre=%m” %s

TOC of the extracted CD

Track | Start | Length | Start sector | End sector
———————————————————
1 | 0:00.00 | 3:38.03 | 0 | 16352
2 | 3:38.03 | 4:02.32 | 16353 | 34534
3 | 7:40.35 | 2:35.68 | 34535 | 46227
4 | 10:16.28 | 1:50.01 | 46228 | 54478
5 | 12:06.29 | 1:34.47 | 54479 | 61575
6 | 13:41.01 | 1:39.70 | 61576 | 69070
7 | 15:20.71 | 2:29.37 | 69071 | 80282
8 | 17:50.33 | 2:32.71 | 80283 | 91753
9 | 20:23.29 | 2:34.52 | 91754 | 103355
10 | 22:58.06 | 2:36.49 | 103356 | 115104
11 | 25:34.55 | 1:58.19 | 115105 | 123973
12 | 27:32.74 | 2:13.13 | 123974 | 133961
13 | 29:46.12 | 2:31.07 | 133962 | 145293
14 | 32:17.19 | 2:19.06 | 145294 | 155724
15 | 34:36.25 | 2:12.65 | 155725 | 165689
16 | 36:49.15 | 1:26.64 | 165690 | 172203
17 | 38:16.04 | 2:26.17 | 172204 | 183170
18 | 40:42.21 | 1:38.66 | 183171 | 190586
19 | 42:21.12 | 3:11.14 | 190587 | 204925
20 | 45:32.26 | 3:27.20 | 204926 | 220470
21 | 48:59.46 | 2:20.61 | 220471 | 231031
22 | 51:20.32 | 2:59.24 | 231032 | 244480

Track 1

Filename C:\Users\Nikki\Documents\Torrents\EAC\The Faction – 2001 – Collection 2- Uncollectable\01 – You Are Here (1985).wav

Pre-gap length 0:00:02.00

Peak level 100.0 %
Track quality 100.0 %
Test CRC 5278BB5E
Copy CRC 5278BB5E
Track not present in AccurateRip database
Copy OK

Track 2

Filename C:\Users\Nikki\Documents\Torrents\EAC\The Faction – 2001 – Collection 2- Uncollectable\02 – Terror In the Streets (1985).wav

Peak level 100.0 %
Track quality 99.9 %
Test CRC 5C243D03
Copy CRC 5C243D03
Track not present in AccurateRip database
Copy OK

Track 3

Filename C:\Users\Nikki\Documents\Torrents\EAC\The Faction – 2001 – Collection 2- Uncollectable\03 – A U.K. (1983).wav

Peak level 100.0 %
Track quality 100.0 %
Test CRC 2EF21DC3
Copy CRC 2EF21DC3
Track not present in AccurateRip database
Copy OK

Track 4

Filename C:\Users\Nikki\Documents\Torrents\EAC\The Faction – 2001 – Collection 2- Uncollectable\04 – Eternal Plan (1983).wav

Peak level 100.0 %
Track quality 100.0 %
Test CRC 5B8CC0AA
Copy CRC 5B8CC0AA
Track not present in AccurateRip database
Copy OK

Track 5

Filename C:\Users\Nikki\Documents\Torrents\EAC\The Faction – 2001 – Collection 2- Uncollectable\05 – Black Balled (1983).wav

Peak level 100.0 %
Track quality 99.8 %
Test CRC 98CC79AF
Copy CRC 98CC79AF
Track not present in AccurateRip database
Copy OK

Track 6

Filename C:\Users\Nikki\Documents\Torrents\EAC\The Faction – 2001 – Collection 2- Uncollectable\06 – Demons (1984).wav

Peak level 100.0 %
Track quality 99.8 %
Test CRC CD6D351E
Copy CRC CD6D351E
Track not present in AccurateRip database
Copy OK

Track 7

Filename C:\Users\Nikki\Documents\Torrents\EAC\The Faction – 2001 – Collection 2- Uncollectable\07 – Change of Pace (1983).wav

Peak level 100.0 %
Track quality 100.0 %
Test CRC 374D4C76
Copy CRC 374D4C76
Track not present in AccurateRip database
Copy OK

Track 8

Filename C:\Users\Nikki\Documents\Torrents\EAC\The Faction – 2001 – Collection 2- Uncollectable\08 – The Brain (1984).wav

Peak level 100.0 %
Track quality 100.0 %
Test CRC FA1A4051
Copy CRC FA1A4051
Track not present in AccurateRip database
Copy OK

Track 9

Filename C:\Users\Nikki\Documents\Torrents\EAC\The Faction – 2001 – Collection 2- Uncollectable\09 – Running Amok (1983).wav

Peak level 100.0 %
Track quality 100.0 %
Test CRC 0D453EF4
Copy CRC 0D453EF4
Track not present in AccurateRip database
Copy OK

Track 10

Filename C:\Users\Nikki\Documents\Torrents\EAC\The Faction – 2001 – Collection 2- Uncollectable\10 – Beyond the Mirror (1983).wav

Peak level 100.0 %
Track quality 100.0 %
Test CRC BC6E6AD9
Copy CRC BC6E6AD9
Track not present in AccurateRip database
Copy OK

Track 11

Filename C:\Users\Nikki\Documents\Torrents\EAC\The Faction – 2001 – Collection 2- Uncollectable\11 – It Makes Me Sick (1982).wav

Peak level 100.0 %
Track quality 100.0 %
Test CRC F179899E
Copy CRC F179899E
Track not present in AccurateRip database
Copy OK

Track 12

Filename C:\Users\Nikki\Documents\Torrents\EAC\The Faction – 2001 – Collection 2- Uncollectable\12 – Me (1982).wav

Peak level 100.0 %
Track quality 100.0 %
Test CRC 47459C81
Copy CRC 47459C81
Track not present in AccurateRip database
Copy OK

Track 13

Filename C:\Users\Nikki\Documents\Torrents\EAC\The Faction – 2001 – Collection 2- Uncollectable\13 – Tongue Like a Battering Ram (Live At Cbgbs 1985).wav

Peak level 89.1 %
Track quality 99.9 %
Test CRC 9C7031EB
Copy CRC 9C7031EB
Track not present in AccurateRip database
Copy OK

Track 14

Filename C:\Users\Nikki\Documents\Torrents\EAC\The Faction – 2001 – Collection 2- Uncollectable\14 – Being Watched (Live At Cbgbs 1985).wav

Peak level 89.1 %
Track quality 100.0 %
Test CRC 62021347
Copy CRC 62021347
Track not present in AccurateRip database
Copy OK

Track 15

Filename C:\Users\Nikki\Documents\Torrents\EAC\The Faction – 2001 – Collection 2- Uncollectable\15 – Corpse In Disguise (Live At Cbgbs 1985).wav

Peak level 89.1 %
Track quality 100.0 %
Test CRC FF7CE24D
Copy CRC FF7CE24D
Track not present in AccurateRip database
Copy OK

Track 16

Filename C:\Users\Nikki\Documents\Torrents\EAC\The Faction – 2001 – Collection 2- Uncollectable\16 – Pegged for Life (Live At Cbgbs 1985).wav

Peak level 89.1 %
Track quality 100.0 %
Test CRC BAC3A464
Copy CRC BAC3A464
Track not present in AccurateRip database
Copy OK

Track 17

Filename C:\Users\Nikki\Documents\Torrents\EAC\The Faction – 2001 – Collection 2- Uncollectable\17 – Not Mine (Live At Cbgbs 1985).wav

Peak level 100.0 %
Track quality 100.0 %
Test CRC FF230C53
Copy CRC FF230C53
Track not present in AccurateRip database
Copy OK

Track 18

Filename C:\Users\Nikki\Documents\Torrents\EAC\The Faction – 2001 – Collection 2- Uncollectable\18 – Skate and Destroy (Live At Cbgbs 1985).wav

Peak level 89.1 %
Track quality 100.0 %
Test CRC D120D9DE
Copy CRC D120D9DE
Track not present in AccurateRip database
Copy OK

Track 19

Filename C:\Users\Nikki\Documents\Torrents\EAC\The Faction – 2001 – Collection 2- Uncollectable\19 – Deathless (Live At Cbgbs 1985).wav

Peak level 89.1 %
Track quality 100.0 %
Test CRC 5D4986D9
Copy CRC 5D4986D9
Track not present in AccurateRip database
Copy OK

Track 20

Filename C:\Users\Nikki\Documents\Torrents\EAC\The Faction – 2001 – Collection 2- Uncollectable\20 – Dark Room (Live At Cbgbs 1985).wav

Peak level 89.1 %
Track quality 100.0 %
Test CRC 810AE95D
Copy CRC 810AE95D
Track not present in AccurateRip database
Copy OK

Track 21

Filename C:\Users\Nikki\Documents\Torrents\EAC\The Faction – 2001 – Collection 2- Uncollectable\21 – Why Save the Whales (Live At Cbgbs 1985).wav

Peak level 89.1 %
Track quality 100.0 %
Test CRC C90E4555
Copy CRC C90E4555
Track not present in AccurateRip database
Copy OK

Track 22

Filename C:\Users\Nikki\Documents\Torrents\EAC\The Faction – 2001 – Collection 2- Uncollectable\22 – I Decide for Me (Live At Cbgbs 1985).wav

Peak level 100.0 %
Track quality 99.9 %
Test CRC 2E12C854
Copy CRC 2E12C854
Track not present in AccurateRip database
Copy OK

None of the tracks are present in the AccurateRip database

No errors occurred

End of status report

REM GENRE Punk
REM DATE 2001
REM DISCID 2F0CBB16
REM COMMENT “ExactAudioCopy v0.99pb5”
FILE “The Faction – 2001 – Collection 2- Uncollectable\01 – You Are Here (1985).wav” WAVE
TRACK 01 AUDIO
INDEX 01 00:00:00
FILE “The Faction – 2001 – Collection 2- Uncollectable\02 – Terror In the Streets (1985).wav” WAVE
TRACK 02 AUDIO
INDEX 01 00:00:00
FILE “The Faction – 2001 – Collection 2- Uncollectable\03 – A U.K. (1983).wav” WAVE
TRACK 03 AUDIO
INDEX 01 00:00:00
FILE “The Faction – 2001 – Collection 2- Uncollectable\04 – Eternal Plan (1983).wav” WAVE
TRACK 04 AUDIO
INDEX 01 00:00:00
FILE “The Faction – 2001 – Collection 2- Uncollectable\05 – Black Balled (1983).wav” WAVE
TRACK 05 AUDIO
INDEX 01 00:00:00
FILE “The Faction – 2001 – Collection 2- Uncollectable\06 – Demons (1984).wav” WAVE
TRACK 06 AUDIO
INDEX 01 00:00:00
FILE “The Faction – 2001 – Collection 2- Uncollectable\07 – Change of Pace (1983).wav” WAVE
TRACK 07 AUDIO
INDEX 01 00:00:00
FILE “The Faction – 2001 – Collection 2- Uncollectable\08 – The Brain (1984).wav” WAVE
TRACK 08 AUDIO
INDEX 01 00:00:00
FILE “The Faction – 2001 – Collection 2- Uncollectable\09 – Running Amok (1983).wav” WAVE
TRACK 09 AUDIO
INDEX 01 00:00:00
FILE “The Faction – 2001 – Collection 2- Uncollectable\10 – Beyond the Mirror (1983).wav” WAVE
TRACK 10 AUDIO
INDEX 01 00:00:00
FILE “The Faction – 2001 – Collection 2- Uncollectable\11 – It Makes Me Sick (1982).wav” WAVE
TRACK 11 AUDIO
INDEX 01 00:00:00
FILE “The Faction – 2001 – Collection 2- Uncollectable\12 – Me (1982).wav” WAVE
TRACK 12 AUDIO
INDEX 01 00:00:00
FILE “The Faction – 2001 – Collection 2- Uncollectable\13 – Tongue Like a Battering Ram (Live At Cbgbs 1985).wav” WAVE
TRACK 13 AUDIO
INDEX 01 00:00:00
FILE “The Faction – 2001 – Collection 2- Uncollectable\14 – Being Watched (Live At Cbgbs 1985).wav” WAVE
TRACK 14 AUDIO
INDEX 01 00:00:00
FILE “The Faction – 2001 – Collection 2- Uncollectable\15 – Corpse In Disguise (Live At Cbgbs 1985).wav” WAVE
TRACK 15 AUDIO
INDEX 01 00:00:00
FILE “The Faction – 2001 – Collection 2- Uncollectable\16 – Pegged for Life (Live At Cbgbs 1985).wav” WAVE
TRACK 16 AUDIO
INDEX 01 00:00:00
FILE “The Faction – 2001 – Collection 2- Uncollectable\17 – Not Mine (Live At Cbgbs 1985).wav” WAVE
TRACK 17 AUDIO
INDEX 01 00:00:00
FILE “The Faction – 2001 – Collection 2- Uncollectable\18 – Skate and Destroy (Live At Cbgbs 1985).wav” WAVE
TRACK 18 AUDIO
INDEX 01 00:00:00
FILE “The Faction – 2001 – Collection 2- Uncollectable\19 – Deathless (Live At Cbgbs 1985).wav” WAVE
TRACK 19 AUDIO
INDEX 01 00:00:00
FILE “The Faction – 2001 – Collection 2- Uncollectable\20 – Dark Room (Live At Cbgbs 1985).wav” WAVE
TRACK 20 AUDIO
INDEX 01 00:00:00
FILE “The Faction – 2001 – Collection 2- Uncollectable\21 – Why Save the Whales (Live At Cbgbs 1985).wav” WAVE
TRACK 21 AUDIO
INDEX 01 00:00:00
FILE “The Faction – 2001 – Collection 2- Uncollectable\22 – I Decide for Me (Live At Cbgbs 1985).wav” WAVE
TRACK 22 AUDIO
INDEX 01 00:00:00


Leave a Reply

Your email address will not be published. Required fields are marked *

This site uses Akismet to reduce spam. Learn how your comment data is processed.