The Faction – Collection 1982-1985




Artist: The Faction
Year: 1996
Genre: Hardcore
Notes: Discogs
Add. Notes:
Cover incl.: No
Encoder: FLAC
Bitrate: ~1000 kBit/s (44.1 kHz/16 Bit/s)
Log & Cue incl.: Yes
Size: 476,49 MB
Password: “slam” (without ” “)


All Downloads/Hosters are compatible

Download 1
Turbobit.net
Rapidgator.net
KatFile.com
UploadRar.com
Download 2
Turbobit.net
Rapidgator.net
KatFile.com
UploadRar.com
Download 3
Turbobit.net
Rapidgator.net
KatFile.com
UploadRar.com

Tracklist:

1 - Tongue Like A Battering Ram - 3:06
2 - Friends And Enemies - 2:11
3 - The Kids Are The Future - 2:52
4 - Dark Room - 3:49
5 - Being Watched - 2:27
6 - Corpse In Disguise - 2:37
7 - Let's Go Get Cokes - 3:15
8 - Why Save The Whales - 2:21
9 - Yesterday Is Gone - 1:57
10 - 100 Years War - 3:14
11 - I Decide For Me - 3:14
12 - Fast Food Diet - 0:58
13 - California Dreamin' - 2:14
14 - Lost In Space - 2:06
15 - Room 101 - 1:27
16 - Skate & Destroy - 1:52
17 - Deathless - 3:35
18 - Boredom Awaits - 2:34
19 - Your Generation - 2:50
20 - Not Mine - 2:43
21 - Bullets Are Faster Than Words - 2:14
22 - Since I Was A Kid - 1:34
23 - Pegged For Life - 1:38
24 - Skate Harassment (Live At The Tool And Die) - 1:59
25 - Spineless Majority (Live At KFJC) - 1:47
26 - Beyond The Mirror - 2:25
27 - Demons (Live At CBGB's) - 1:43
28 - Tenebrae - 2:48

EAC-Log, CUE-Sheed & NFO:

Click to open spoiler
Exact Audio Copy V0.99 prebeta 5 from 4. May 2009

EAC extraction logfile from 4. January 2010, 3:11

Faction / The Faction Collection 1982-1985

Used drive : PIONEER DVD-RW DVRTS08 Adapter: 1 ID: 0

Read mode : Secure
Utilize accurate stream : Yes
Defeat audio cache : Yes
Make use of C2 pointers : No

Read offset correction : 48
Overread into Lead-In and Lead-Out : No
Fill up missing offset samples with silence : Yes
Delete leading and trailing silent blocks : No
Null samples used in CRC calculations : Yes
Used interface : Native Win32 interface for Win NT & 2000
Gap handling : Appended to previous track

Used output format : User Defined Encoder
Selected bitrate : 128 kBit/s
Quality : High
Add ID3 tag : No
Command line compressor : C:\Program Files\Exact Audio Copy\Flac\flac.exe
Additional command line options : -V -8 -T “artist=%a” -T “title=%t” -T “album=%g” -T “date=%y” -T “tracknumber=%n” -T “genre=%m” %s

TOC of the extracted CD

Track | Start | Length | Start sector | End sector
———————————————————
1 | 0:00.00 | 3:06.08 | 0 | 13957
2 | 3:06.08 | 2:11.41 | 13958 | 23823
3 | 5:17.49 | 2:52.11 | 23824 | 36734
4 | 8:09.60 | 3:49.15 | 36735 | 53924
5 | 11:59.00 | 2:27.59 | 53925 | 65008
6 | 14:26.59 | 2:37.52 | 65009 | 76835
7 | 17:04.36 | 3:15.19 | 76836 | 91479
8 | 20:19.55 | 2:21.32 | 91480 | 102086
9 | 22:41.12 | 1:57.70 | 102087 | 110931
10 | 24:39.07 | 3:14.51 | 110932 | 125532
11 | 27:53.58 | 3:14.00 | 125533 | 140082
12 | 31:07.58 | 0:58.05 | 140083 | 144437
13 | 32:05.63 | 2:14.29 | 144438 | 154516
14 | 34:20.17 | 2:06.70 | 154517 | 164036
15 | 36:27.12 | 1:27.41 | 164037 | 170602
16 | 37:54.53 | 1:52.17 | 170603 | 179019
17 | 39:46.70 | 3:35.15 | 179020 | 195159
18 | 43:22.10 | 2:34.49 | 195160 | 206758
19 | 45:56.59 | 2:50.41 | 206759 | 219549
20 | 48:47.25 | 2:43.46 | 219550 | 231820
21 | 51:30.71 | 2:14.70 | 231821 | 241940
22 | 53:45.66 | 1:34.36 | 241941 | 249026
23 | 55:20.27 | 1:38.51 | 249027 | 256427
24 | 56:59.03 | 1:59.18 | 256428 | 265370
25 | 58:58.21 | 1:47.43 | 265371 | 273438
26 | 60:45.64 | 2:25.06 | 273439 | 284319
27 | 63:10.70 | 1:43.35 | 284320 | 292079
28 | 64:54.30 | 2:48.20 | 292080 | 304699

Track 1

Filename Z:\what.cd\rips\Faction – The Faction Collection 1982-1985 -\01 – Tongue Like A Battering Ram.wav

Pre-gap length 0:00:02.00

Peak level 100.0 %
Track quality 100.0 %
Test CRC C3972844
Copy CRC C3972844
Track not present in AccurateRip database
Copy OK

Track 2

Filename Z:\what.cd\rips\Faction – The Faction Collection 1982-1985 -\02 – Friends And Enemies.wav

Pre-gap length 0:00:02.06

Peak level 100.0 %
Track quality 100.0 %
Test CRC FA6DA811
Copy CRC FA6DA811
Track not present in AccurateRip database
Copy OK

Track 3

Filename Z:\what.cd\rips\Faction – The Faction Collection 1982-1985 -\03 – The Kids Are The Future.wav

Pre-gap length 0:00:02.06

Peak level 100.0 %
Track quality 100.0 %
Test CRC DE538E72
Copy CRC DE538E72
Track not present in AccurateRip database
Copy OK

Track 4

Filename Z:\what.cd\rips\Faction – The Faction Collection 1982-1985 -\04 – Dark Room.wav

Pre-gap length 0:00:01.54

Peak level 100.0 %
Track quality 100.0 %
Test CRC BA3EF010
Copy CRC BA3EF010
Track not present in AccurateRip database
Copy OK

Track 5

Filename Z:\what.cd\rips\Faction – The Faction Collection 1982-1985 -\05 – Being Watched.wav

Pre-gap length 0:00:00.37

Peak level 100.0 %
Track quality 100.0 %
Test CRC 88280668
Copy CRC 88280668
Track not present in AccurateRip database
Copy OK

Track 6

Filename Z:\what.cd\rips\Faction – The Faction Collection 1982-1985 -\06 – Corpse In Disguise.wav

Pre-gap length 0:00:01.60

Peak level 100.0 %
Track quality 100.0 %
Test CRC 2BD9C1D8
Copy CRC 2BD9C1D8
Track not present in AccurateRip database
Copy OK

Track 7

Filename Z:\what.cd\rips\Faction – The Faction Collection 1982-1985 -\07 – Let’s Go Get Cokes.wav

Pre-gap length 0:00:01.60

Peak level 100.0 %
Track quality 99.9 %
Test CRC 02949FE5
Copy CRC 02949FE5
Track not present in AccurateRip database
Copy OK

Track 8

Filename Z:\what.cd\rips\Faction – The Faction Collection 1982-1985 -\08 – Why Save The Whales.wav

Pre-gap length 0:00:03.00

Peak level 100.0 %
Track quality 99.9 %
Test CRC 140EEA6C
Copy CRC 140EEA6C
Track not present in AccurateRip database
Copy OK

Track 9

Filename Z:\what.cd\rips\Faction – The Faction Collection 1982-1985 -\09 – Yesterday Is Gone.wav

Pre-gap length 0:00:00.80

Peak level 100.0 %
Track quality 100.0 %
Test CRC D4E78E15
Copy CRC D4E78E15
Track not present in AccurateRip database
Copy OK

Track 10

Filename Z:\what.cd\rips\Faction – The Faction Collection 1982-1985 -\10 – 100 Years War.wav

Pre-gap length 0:00:01.60

Peak level 92.3 %
Track quality 100.0 %
Test CRC B3548B7E
Copy CRC B3548B7E
Track not present in AccurateRip database
Copy OK

Track 11

Filename Z:\what.cd\rips\Faction – The Faction Collection 1982-1985 -\11 – I Decide For Me.wav

Pre-gap length 0:00:01.60

Peak level 100.0 %
Track quality 100.0 %
Test CRC 56D232F5
Copy CRC 56D232F5
Track not present in AccurateRip database
Copy OK

Track 12

Filename Z:\what.cd\rips\Faction – The Faction Collection 1982-1985 -\12 – Fast Food Diet.wav

Pre-gap length 0:00:01.60

Peak level 100.0 %
Track quality 100.0 %
Test CRC 3D5E4B3F
Copy CRC 3D5E4B3F
Track not present in AccurateRip database
Copy OK

Track 13

Filename Z:\what.cd\rips\Faction – The Faction Collection 1982-1985 -\13 – California Dreamin’.wav

Pre-gap length 0:00:01.60

Peak level 100.0 %
Track quality 100.0 %
Test CRC 3A703437
Copy CRC 3A703437
Track not present in AccurateRip database
Copy OK

Track 14

Filename Z:\what.cd\rips\Faction – The Faction Collection 1982-1985 -\14 – Lost In Space.wav

Pre-gap length 0:00:01.60

Peak level 99.9 %
Track quality 100.0 %
Test CRC 37FC25C4
Copy CRC 37FC25C4
Track not present in AccurateRip database
Copy OK

Track 15

Filename Z:\what.cd\rips\Faction – The Faction Collection 1982-1985 -\15 – Room 101.wav

Pre-gap length 0:00:01.60

Peak level 100.0 %
Track quality 100.0 %
Test CRC 94DB2C38
Copy CRC 94DB2C38
Track not present in AccurateRip database
Copy OK

Track 16

Filename Z:\what.cd\rips\Faction – The Faction Collection 1982-1985 -\16 – Skate & Destroy.wav

Pre-gap length 0:00:01.60

Peak level 100.0 %
Track quality 99.9 %
Test CRC EDB303EC
Copy CRC EDB303EC
Track not present in AccurateRip database
Copy OK

Track 17

Filename Z:\what.cd\rips\Faction – The Faction Collection 1982-1985 -\17 – Deathless.wav

Pre-gap length 0:00:02.60

Peak level 100.0 %
Track quality 99.9 %
Test CRC 2B85F6BB
Copy CRC 2B85F6BB
Track not present in AccurateRip database
Copy OK

Track 18

Filename Z:\what.cd\rips\Faction – The Faction Collection 1982-1985 -\18 – Boredom Awaits.wav

Pre-gap length 0:00:00.80

Peak level 99.9 %
Track quality 100.0 %
Test CRC 3DCAF8B3
Copy CRC 3DCAF8B3
Track not present in AccurateRip database
Copy OK

Track 19

Filename Z:\what.cd\rips\Faction – The Faction Collection 1982-1985 -\19 – Your Generation.wav

Pre-gap length 0:00:02.81

Peak level 100.0 %
Track quality 100.0 %
Test CRC 43AA27AA
Copy CRC 43AA27AA
Track not present in AccurateRip database
Copy OK

Track 20

Filename Z:\what.cd\rips\Faction – The Faction Collection 1982-1985 -\20 – Not Mine.wav

Pre-gap length 0:00:01.05

Peak level 100.0 %
Track quality 100.0 %
Test CRC 7FF51707
Copy CRC 7FF51707
Track not present in AccurateRip database
Copy OK

Track 21

Filename Z:\what.cd\rips\Faction – The Faction Collection 1982-1985 -\21 – Bullets Are Faster Than Words.wav

Pre-gap length 0:00:01.60

Peak level 99.9 %
Track quality 100.0 %
Test CRC 37407482
Copy CRC 37407482
Track not present in AccurateRip database
Copy OK

Track 22

Filename Z:\what.cd\rips\Faction – The Faction Collection 1982-1985 -\22 – Since I Was A Kid.wav

Pre-gap length 0:00:01.58

Peak level 99.9 %
Track quality 100.0 %
Test CRC 9BFDC563
Copy CRC 9BFDC563
Track not present in AccurateRip database
Copy OK

Track 23

Filename Z:\what.cd\rips\Faction – The Faction Collection 1982-1985 -\23 – Pegged For Life.wav

Pre-gap length 0:00:00.80

Peak level 100.0 %
Track quality 100.0 %
Test CRC 7B37B40F
Copy CRC 7B37B40F
Track not present in AccurateRip database
Copy OK

Track 24

Filename Z:\what.cd\rips\Faction – The Faction Collection 1982-1985 -\24 – Skate Harrassment (Live At The Tool And Die).wav

Pre-gap length 0:00:01.60

Peak level 100.0 %
Track quality 100.0 %
Test CRC 1C5D92C7
Copy CRC 1C5D92C7
Track not present in AccurateRip database
Copy OK

Track 25

Filename Z:\what.cd\rips\Faction – The Faction Collection 1982-1985 -\25 – Spineless Majority (Live AT KFJC).wav

Peak level 99.1 %
Track quality 99.9 %
Test CRC 9619B4D5
Copy CRC 9619B4D5
Track not present in AccurateRip database
Copy OK

Track 26

Filename Z:\what.cd\rips\Faction – The Faction Collection 1982-1985 -\26 – Beyond The Mirror.wav

Pre-gap length 0:00:00.80

Peak level 85.5 %
Track quality 100.0 %
Test CRC BB906C00
Copy CRC BB906C00
Track not present in AccurateRip database
Copy OK

Track 27

Filename Z:\what.cd\rips\Faction – The Faction Collection 1982-1985 -\27 – Demons (Live At CBGB’s).wav

Peak level 83.4 %
Track quality 100.0 %
Test CRC 61340FDC
Copy CRC 61340FDC
Track not present in AccurateRip database
Copy OK

Track 28

Filename Z:\what.cd\rips\Faction – The Faction Collection 1982-1985 -\28 – Tenebrae.wav

Pre-gap length 0:00:00.38

Peak level 99.9 %
Track quality 100.0 %
Test CRC 64FFE7BF
Copy CRC 64FFE7BF
Track not present in AccurateRip database
Copy OK

None of the tracks are present in the AccurateRip database

No errors occurred

End of status report

REM DISCID B20FDE1C
REM COMMENT “ExactAudioCopy v0.99pb5”
PERFORMER “Faction”
TITLE “The Faction Collection 1982-1985”
FILE “Faction – The Faction Collection 1982-1985 -\01 – Tongue Like A Battering Ram.wav” WAVE
TRACK 01 AUDIO
TITLE “Tongue Like A Battering Ram”
PERFORMER “Faction”
FLAGS DCP
INDEX 01 00:00:00
TRACK 02 AUDIO
TITLE “Friends And Enemies”
PERFORMER “Faction”
FLAGS DCP
INDEX 00 03:04:03
FILE “Faction – The Faction Collection 1982-1985 -\02 – Friends And Enemies.wav” WAVE
INDEX 01 00:00:00
TRACK 03 AUDIO
TITLE “The Kids Are The Future”
PERFORMER “Faction”
FLAGS DCP
INDEX 00 02:09:36
FILE “Faction – The Faction Collection 1982-1985 -\03 – The Kids Are The Future.wav” WAVE
INDEX 01 00:00:00
TRACK 04 AUDIO
TITLE “Dark Room”
PERFORMER “Faction”
FLAGS DCP
INDEX 00 02:50:45
FILE “Faction – The Faction Collection 1982-1985 -\04 – Dark Room.wav” WAVE
INDEX 01 00:00:00
TRACK 05 AUDIO
TITLE “Being Watched”
PERFORMER “Faction”
FLAGS DCP
INDEX 00 03:48:62
FILE “Faction – The Faction Collection 1982-1985 -\05 – Being Watched.wav” WAVE
INDEX 01 00:00:00
TRACK 06 AUDIO
TITLE “Corpse In Disguise”
PERFORMER “Faction”
FLAGS DCP
INDEX 00 02:26:14
FILE “Faction – The Faction Collection 1982-1985 -\06 – Corpse In Disguise.wav” WAVE
INDEX 01 00:00:00
TRACK 07 AUDIO
TITLE “Let’s Go Get Cokes”
PERFORMER “Faction”
FLAGS DCP
INDEX 00 02:36:07
FILE “Faction – The Faction Collection 1982-1985 -\07 – Let’s Go Get Cokes.wav” WAVE
INDEX 01 00:00:00
TRACK 08 AUDIO
TITLE “Why Save The Whales”
PERFORMER “Faction”
FLAGS DCP
INDEX 00 03:12:19
FILE “Faction – The Faction Collection 1982-1985 -\08 – Why Save The Whales.wav” WAVE
INDEX 01 00:00:00
TRACK 09 AUDIO
TITLE “Yesterday Is Gone”
PERFORMER “Faction”
FLAGS DCP
INDEX 00 02:20:47
FILE “Faction – The Faction Collection 1982-1985 -\09 – Yesterday Is Gone.wav” WAVE
INDEX 01 00:00:00
TRACK 10 AUDIO
TITLE “100 Years War”
PERFORMER “Faction”
FLAGS DCP
INDEX 00 01:56:25
FILE “Faction – The Faction Collection 1982-1985 -\10 – 100 Years War.wav” WAVE
INDEX 01 00:00:00
TRACK 11 AUDIO
TITLE “I Decide For Me”
PERFORMER “Faction”
FLAGS DCP
INDEX 00 03:13:06
FILE “Faction – The Faction Collection 1982-1985 -\11 – I Decide For Me.wav” WAVE
INDEX 01 00:00:00
TRACK 12 AUDIO
TITLE “Fast Food Diet”
PERFORMER “Faction”
FLAGS DCP
INDEX 00 03:12:30
FILE “Faction – The Faction Collection 1982-1985 -\12 – Fast Food Diet.wav” WAVE
INDEX 01 00:00:00
TRACK 13 AUDIO
TITLE “California Dreamin'”
PERFORMER “Faction”
FLAGS DCP
INDEX 00 00:56:35
FILE “Faction – The Faction Collection 1982-1985 -\13 – California Dreamin’.wav” WAVE
INDEX 01 00:00:00
TRACK 14 AUDIO
TITLE “Lost In Space”
PERFORMER “Faction”
FLAGS DCP
INDEX 00 02:12:59
FILE “Faction – The Faction Collection 1982-1985 -\14 – Lost In Space.wav” WAVE
INDEX 01 00:00:00
TRACK 15 AUDIO
TITLE “Room 101”
PERFORMER “Faction”
FLAGS DCP
INDEX 00 02:05:25
FILE “Faction – The Faction Collection 1982-1985 -\15 – Room 101.wav” WAVE
INDEX 01 00:00:00
TRACK 16 AUDIO
TITLE “Skate & Destroy”
PERFORMER “Faction”
FLAGS DCP
INDEX 00 01:25:71
FILE “Faction – The Faction Collection 1982-1985 -\16 – Skate & Destroy.wav” WAVE
INDEX 01 00:00:00
TRACK 17 AUDIO
TITLE “Deathless”
PERFORMER “Faction”
FLAGS DCP
INDEX 00 01:49:47
FILE “Faction – The Faction Collection 1982-1985 -\17 – Deathless.wav” WAVE
INDEX 01 00:00:00
TRACK 18 AUDIO
TITLE “Boredom Awaits”
PERFORMER “Faction”
FLAGS DCP
INDEX 00 03:34:30
FILE “Faction – The Faction Collection 1982-1985 -\18 – Boredom Awaits.wav” WAVE
INDEX 01 00:00:00
TRACK 19 AUDIO
TITLE “Your Generation”
PERFORMER “Faction”
FLAGS DCP
INDEX 00 02:31:63
FILE “Faction – The Faction Collection 1982-1985 -\19 – Your Generation.wav” WAVE
INDEX 01 00:00:00
TRACK 20 AUDIO
TITLE “Not Mine”
PERFORMER “Faction”
FLAGS DCP
INDEX 00 02:49:37
FILE “Faction – The Faction Collection 1982-1985 -\20 – Not Mine.wav” WAVE
INDEX 01 00:00:00
TRACK 21 AUDIO
TITLE “Bullets Are Faster Than Words”
PERFORMER “Faction”
FLAGS DCP
INDEX 00 02:42:01
FILE “Faction – The Faction Collection 1982-1985 -\21 – Bullets Are Faster Than Words.wav” WAVE
INDEX 01 00:00:00
TRACK 22 AUDIO
TITLE “Since I Was A Kid”
PERFORMER “Faction”
FLAGS DCP
INDEX 00 02:13:26
FILE “Faction – The Faction Collection 1982-1985 -\22 – Since I Was A Kid.wav” WAVE
INDEX 01 00:00:00
TRACK 23 AUDIO
TITLE “Pegged For Life”
PERFORMER “Faction”
FLAGS DCP
INDEX 00 01:33:51
FILE “Faction – The Faction Collection 1982-1985 -\23 – Pegged For Life.wav” WAVE
INDEX 01 00:00:00
TRACK 24 AUDIO
TITLE “Skate Harrassment (Live At The Tool And Die)”
PERFORMER “Faction”
FLAGS DCP
INDEX 00 01:37:06
FILE “Faction – The Faction Collection 1982-1985 -\24 – Skate Harrassment (Live At The Tool And Die).wav” WAVE
INDEX 01 00:00:00
FILE “Faction – The Faction Collection 1982-1985 -\25 – Spineless Majority (Live AT KFJC).wav” WAVE
TRACK 25 AUDIO
TITLE “Spineless Majority (Live AT KFJC)”
PERFORMER “Faction”
FLAGS DCP
INDEX 01 00:00:00
TRACK 26 AUDIO
TITLE “Beyond The Mirror”
PERFORMER “Faction”
FLAGS DCP
INDEX 00 01:46:58
FILE “Faction – The Faction Collection 1982-1985 -\26 – Beyond The Mirror.wav” WAVE
INDEX 01 00:00:00
FILE “Faction – The Faction Collection 1982-1985 -\27 – Demons (Live At CBGB’s).wav” WAVE
TRACK 27 AUDIO
TITLE “Demons (Live At CBGB’s)”
PERFORMER “Faction”
FLAGS DCP
INDEX 01 00:00:00
TRACK 28 AUDIO
TITLE “Tenebrae”
PERFORMER “Faction”
FLAGS DCP
INDEX 00 01:43:06
FILE “Faction – The Faction Collection 1982-1985 -\28 – Tenebrae.wav” WAVE
INDEX 01 00:00:00


Leave a Reply

Your email address will not be published. Required fields are marked *

This site uses Akismet to reduce spam. Learn how your comment data is processed.