The Exploited – The Massacre




Artist: The Exploited
Year: 1990
Genre: Punk
Notes: Discogs
Add. Notes:
Cover incl.: No
Encoder: FLAC
Bitrate: ~900 kBit/s (44.1 kHz/16 Bit/s)
Log & Cue incl.: Yes
Size: 284 MB
Password: “slam” (without ” “)


All Downloads/Hosters are compatible

Download 1
Turbobit.net
Rapidgator.net
UploadEver.com
KatFile.com
UsersDrive.com
Download 2
Turbobit.net
Rapidgator.net
UploadEver.com
KatFile.com
UsersDrive.com
Download 3
Turbobit.net
Rapidgator.net
UploadEver.com
KatFile.com
UsersDrive.com

Tracklist:

1 - The Massacre - 3:03
2 - Sick Bastard - 4:05
3 - Porno Slut - 3:15
4 - Now I'm Dead - 3:45
5 - Boys In Blue - 3:58
6 - Dog Soldier - 3:05
7 - Don't Pay The Poll Tax - 4:25
8 - F*** Religion - 3:12
9 - About To Die - 3:30
10 - Blown Out Of The Sky - 4:21
11 - Police Shit - 3:54
12 - Stop The Slaughter - 3:40

EAC-Log, CUE-Sheed & NFO:

Click to open spoiler
Exact Audio Copy V0.99 prebeta 5 from 4. May 2009

Отчёт EAC об извлечении, выполненном 10. сентября 2009, 14:20

The Exploited / The Massacre

Дисковод: SONY DVD-ROM DDU1621 Adapter: 1 ID: 1

Режим чтения : Достоверность
Использование точного потока : Да
Отключение кэша аудио : Да
Использование указателей C2 : Нет

Коррекция смещения при чтении : 12
Способность читать области Lead-in и Lead-out : Нет
Заполнение пропущенных сэмплов тишиной : Да
Удаление блоков с тишиной в начале и конце : Нет
При вычислениях CRC использовались нулевые сэмплы : Да
Интерфейс : Установленный внешний ASPI-интерфейс

Выходной формат : Внутренние WAV-операции
Формат сэмплов : 44.100 Гц; 16 бит; стерео

TOC извлечённого CD

Трек | Старт | Длительность | Начальный сектор | Конечный сектор
———————————————————————
1 | 0:00.33 | 3:05.45 | 33 | 13952
2 | 3:06.03 | 3:59.37 | 13953 | 31914
3 | 7:05.40 | 3:11.65 | 31915 | 46304
4 | 10:17.30 | 3:44.13 | 46305 | 63117
5 | 14:01.43 | 3:55.60 | 63118 | 80802
6 | 17:57.28 | 3:05.62 | 80803 | 94739
7 | 21:03.15 | 4:27.30 | 94740 | 114794
8 | 25:30.45 | 3:12.73 | 114795 | 129267
9 | 28:43.43 | 3:30.67 | 129268 | 145084
10 | 32:14.35 | 4:16.08 | 145085 | 164292
11 | 36:30.43 | 3:52.12 | 164293 | 181704
12 | 40:22.55 | 3:35.65 | 181705 | 197894

Характеристики диапазона извлечения и сообщения об ошибках

Выбранный диапазон

Имя файла F:\Загрузки\Exploited\Exploited-The Massacre\The Exploited – The Massacre.wav

Пиковый уровень 87.7 %
Качество диапазона 99.9 %
CRC теста B29E0059
CRC копии B29E0059
Копирование… OK

Ошибок не произошло

AccurateRip: сводка

Трек 1 точность не определена (достоверность 2) [CF6AB5EA], AccurateRip вернул [42C9CBA2]
Трек 2 точность не определена (достоверность 2) [6FC88B70], AccurateRip вернул [BC0B074D]
Трек 3 точность не определена (достоверность 2) [800EC47D], AccurateRip вернул [A2194565]
Трек 4 точность не определена (достоверность 2) [784DB37B], AccurateRip вернул [FF821170]
Трек 5 точность не определена (достоверность 2) [CA8BC272], AccurateRip вернул [A785D995]
Трек 6 точность не определена (достоверность 2) [445D58B3], AccurateRip вернул [394C9DB9]
Трек 7 точность не определена (достоверность 2) [61F3C53B], AccurateRip вернул [0701B353]
Трек 8 точность не определена (достоверность 2) [F70C1770], AccurateRip вернул [D6FD966E]
Трек 9 точность не определена (достоверность 2) [22C317B9], AccurateRip вернул [F1BF2B36]
Трек 10 точность не определена (достоверность 2) [56AAF305], AccurateRip вернул [E2833D1A]
Трек 11 точность не определена (достоверность 2) [B14B5842], AccurateRip вернул [66866023]
Трек 12 точность не определена (достоверность 2) [F161FF46], AccurateRip вернул [7663BE8A]

Ни один трек не прошёл проверки на точность
В вашей базе может быть иной вариант штамповки диска

Конец отчёта

REM GENRE Punk
REM DATE 1990
REM DISCID A50A4E0C
REM COMMENT “ExactAudioCopy v0.99pb5”
PERFORMER “The Exploited”
TITLE “The Massacre”
FILE “The Exploited – The Massacre.wav” WAVE
TRACK 01 AUDIO
TITLE “The Massacre”
PERFORMER “The Exploited”
INDEX 00 00:00:00
INDEX 01 00:00:33
TRACK 02 AUDIO
TITLE “Sick Bastard”
PERFORMER “The Exploited”
INDEX 01 03:06:03
TRACK 03 AUDIO
TITLE “Porno Slut”
PERFORMER “The Exploited”
INDEX 01 07:05:40
TRACK 04 AUDIO
TITLE “Now I’m Dead”
PERFORMER “The Exploited”
INDEX 01 10:17:30
TRACK 05 AUDIO
TITLE “Boys in Blue”
PERFORMER “The Exploited”
INDEX 01 14:01:43
TRACK 06 AUDIO
TITLE “Dog Soldier”
PERFORMER “The Exploited”
INDEX 01 17:57:28
TRACK 07 AUDIO
TITLE “Don’t Pay the Poll Tax”
PERFORMER “The Exploited”
INDEX 00 21:01:55
INDEX 01 21:03:15
TRACK 08 AUDIO
TITLE “F… Religion”
PERFORMER “The Exploited”
INDEX 01 25:30:45
TRACK 09 AUDIO
TITLE “About to Die”
PERFORMER “The Exploited”
INDEX 01 28:43:43
TRACK 10 AUDIO
TITLE “Blown Out of the Sky”
PERFORMER “The Exploited”
INDEX 01 32:14:35
TRACK 11 AUDIO
TITLE “Police Shit”
PERFORMER “The Exploited”
INDEX 01 36:30:43
TRACK 12 AUDIO
TITLE “Stop the Slaughter”
PERFORMER “The Exploited”
INDEX 01 40:22:55


Leave a Reply

Your email address will not be published. Required fields are marked *

This site uses Akismet to reduce spam. Learn how your comment data is processed.