The Exploited – Punks not dead




Artist: The Exploited
Year: 1981/1991
Genre: Hardcore
Notes: Discogs
Add. Notes:
Cover incl.: Yes
Encoder: FLAC
Bitrate: ~700 kBit/s (44.1 kHz/16 Bit/s)
Log & Cue incl.: Yes
Size: 223,14 MB
Password: “slam” (without ” “)


All Downloads/Hosters are compatible

Download 1
Turbobit.net
Rapidgator.net
UploadEver.com
KatFile.com
UsersDrive.com
Download 2
Turbobit.net
Rapidgator.net
UploadEver.com
KatFile.com
UsersDrive.com
Download 3
Turbobit.net
Rapidgator.net
UploadEver.com
KatFile.com
UsersDrive.com

Tracklist:

1 - Punks Not Dead - 1:51
2 - Mucky Pup - 1:42
3 - Cop Cars - 1:53
4 - Free Flight - 3:34
5 - Army Life - 2:38
6 - Blown To Bits - 2:38
7 - Sex And Violence - 5:09
8 - S.P.G. - 2:07
9 - Royalty - 2:07
10 - Dole Q - 1:49
11 - Exploited Barmy Army - 2:38
12 - Ripper - 2:04
13 - Out Of Control - 2:54
14 - Son Of A Copper - 2:40
15 - I Believe In Anarchy - 2:03
16 - Dogs Of War - 1:43
17 - What You Gonna Do - 2:18

EAC-Log, CUE-Sheed & NFO:

Click to open spoiler
Exact Audio Copy V0.99 prebeta 5 from 4. May 2009

Отчёт EAC об извлечении, выполненном 9. сентября 2009, 23:05

The Exploited / Punks not dead

Дисковод: SONY DVD-ROM DDU1621 Adapter: 1 ID: 1

Режим чтения : Достоверность
Использование точного потока : Да
Отключение кэша аудио : Да
Использование указателей C2 : Нет

Коррекция смещения при чтении : 12
Способность читать области Lead-in и Lead-out : Нет
Заполнение пропущенных сэмплов тишиной : Да
Удаление блоков с тишиной в начале и конце : Нет
При вычислениях CRC использовались нулевые сэмплы : Да
Интерфейс : Установленный внешний ASPI-интерфейс

Выходной формат : Внутренние WAV-операции
Формат сэмплов : 44.100 Гц; 16 бит; стерео

TOC извлечённого CD

Трек | Старт | Длительность | Начальный сектор | Конечный сектор
———————————————————————
1 | 0:00.33 | 1:51.32 | 33 | 8389
2 | 1:51.65 | 1:42.05 | 8390 | 16044
3 | 3:33.70 | 1:53.03 | 16045 | 24522
4 | 5:26.73 | 3:34.47 | 24523 | 40619
5 | 9:01.45 | 2:38.53 | 40620 | 52522
6 | 11:40.23 | 2:38.35 | 52523 | 64407
7 | 14:18.58 | 5:09.32 | 64408 | 87614
8 | 19:28.15 | 2:07.18 | 87615 | 97157
9 | 21:35.33 | 2:07.37 | 97158 | 106719
10 | 23:42.70 | 1:49.50 | 106720 | 114944
11 | 25:32.45 | 2:28.00 | 114945 | 126044
12 | 28:00.45 | 2:04.15 | 126045 | 135359
13 | 30:04.60 | 2:54.45 | 135360 | 148454
14 | 32:59.30 | 2:40.00 | 148455 | 160454
15 | 35:39.30 | 2:03.73 | 160455 | 169752
16 | 37:43.28 | 1:43.30 | 169753 | 177507
17 | 39:26.58 | 2:18.05 | 177508 | 187862

Характеристики диапазона извлечения и сообщения об ошибках

Выбранный диапазон

Имя файла F:\Загрузки\Exploited\Exploited-Punks Not Dead\The Exploited – Punks not dead.wav

Пиковый уровень 96.2 %
Качество диапазона 99.9 %
CRC теста 6EA8F7F4
CRC копии 6EA8F7F4
Копирование… OK

Ошибок не произошло

AccurateRip: сводка

Трек 1 точное извлечение (доверие 5) [3949900C]
Трек 2 точное извлечение (доверие 5) [A37F0301]
Трек 3 точное извлечение (доверие 5) [68873B48]
Трек 4 точное извлечение (доверие 5) [4A336641]
Трек 5 точное извлечение (доверие 5) [5B0B1C4D]
Трек 6 точное извлечение (доверие 5) [5E6E2CE8]
Трек 7 точное извлечение (доверие 5) [8EEFFFCE]
Трек 8 точное извлечение (доверие 5) [F22D6728]
Трек 9 точное извлечение (доверие 5) [89C7CE10]
Трек 10 точное извлечение (доверие 5) [C0807B5C]
Трек 11 точное извлечение (доверие 5) [C186D119]
Трек 12 точное извлечение (доверие 5) [B51117FC]
Трек 13 точное извлечение (доверие 5) [54FEFA6A]
Трек 14 точное извлечение (доверие 5) [1C215487]
Трек 15 точное извлечение (доверие 5) [F89A9F4A]
Трек 16 точное извлечение (доверие 5) [5E6E8563]
Трек 17 точное извлечение (доверие 5) [90600A4F]

Все треки извлечены точно

Конец отчёта

REM GENRE Punk
REM DATE 1991
REM DISCID D009C811
REM COMMENT “ExactAudioCopy v0.99pb5”
PERFORMER “The Exploited”
TITLE “Punks not dead”
FILE “The Exploited – Punks not dead.wav” WAVE
TRACK 01 AUDIO
TITLE “Punks not Dead”
PERFORMER “The Exploited”
INDEX 00 00:00:00
INDEX 01 00:00:33
TRACK 02 AUDIO
TITLE “Mucky Pup”
PERFORMER “The Exploited”
INDEX 01 01:51:65
TRACK 03 AUDIO
TITLE “Cop Cars”
PERFORMER “The Exploited”
INDEX 01 03:33:70
TRACK 04 AUDIO
TITLE “Free Flight”
PERFORMER “The Exploited”
INDEX 01 05:26:73
TRACK 05 AUDIO
TITLE “Army Life”
PERFORMER “The Exploited”
INDEX 00 08:59:13
INDEX 01 09:01:45
TRACK 06 AUDIO
TITLE “Blown to Bits”
PERFORMER “The Exploited”
INDEX 00 11:38:53
INDEX 01 11:40:23
TRACK 07 AUDIO
TITLE “Sex and Violence”
PERFORMER “The Exploited”
INDEX 01 14:18:58
TRACK 08 AUDIO
TITLE “S.P.G.”
PERFORMER “The Exploited”
INDEX 00 19:26:38
INDEX 01 19:28:15
TRACK 09 AUDIO
TITLE “Roylalty”
PERFORMER “The Exploited”
INDEX 00 21:33:60
INDEX 01 21:35:33
TRACK 10 AUDIO
TITLE “Dole Q”
PERFORMER “The Exploited”
INDEX 00 23:40:60
INDEX 01 23:42:70
TRACK 11 AUDIO
TITLE “Exploited Barmy Army”
PERFORMER “The Exploited”
INDEX 01 25:32:45
TRACK 12 AUDIO
TITLE “Ripper”
PERFORMER “The Exploited”
INDEX 00 27:59:15
INDEX 01 28:00:45
TRACK 13 AUDIO
TITLE “Out of Control”
PERFORMER “The Exploited”
INDEX 00 30:02:68
INDEX 01 30:04:60
TRACK 14 AUDIO
TITLE “Son of a Copper”
PERFORMER “The Exploited”
INDEX 00 32:57:55
INDEX 01 32:59:30
TRACK 15 AUDIO
TITLE “I Believe in Anarchy”
PERFORMER “The Exploited”
INDEX 01 35:39:30
TRACK 16 AUDIO
TITLE “Dogs of War”
PERFORMER “The Exploited”
INDEX 00 37:41:68
INDEX 01 37:43:28
TRACK 17 AUDIO
TITLE “What you gonna Do”
PERFORMER “The Exploited”
INDEX 00 39:25:05
INDEX 01 39:26:58

Leave a Reply

Your email address will not be published. Required fields are marked *

This site uses Akismet to reduce spam. Learn how your comment data is processed.