The Exploited – Punks Not Dead. (Vinyl-Rip)




Artist: The Exploited
Year: 1981
Genre: Punk
Notes: Discogs
Add. Notes:
Cover incl.: Yes
Encoder: FLAC
Bitrate: ~2500 kBit/s (96 kHz/24 Bit/s)
Log & Cue incl.: Yes
Size: 726,21 MB
Password: “slam” (without ” “)


All Downloads/Hosters are compatible

Download 1
Turbobit.net
Rapidgator.net
KatFile.com
UsersDrive.com
CloudShare.to
Download 2
Turbobit.net
Rapidgator.net
KatFile.com
UsersDrive.com
CloudShare.to
Download 3
Turbobit.net
Rapidgator.net
KatFile.com
UsersDrive.com
CloudShare.to

Tracklist:

A1 - Punks Not Dead - 1:48
A2 - Mucky Pup - 1:41
A3 - Cop Cars - 1:50
A4 - Free Flight - 3:32
A5 - Army Life (Part 2) - 2:37
A6 - Blown To Bits - 2:38
A7 - Sex & Violence - 5:09
B1 - SPG - 2:06
B2 - Royalty - 2:05
B3 - Dole Q - 1:52
B4 - Exploited Barmy Army - 2:28
B5 - Ripper - 2:02
B6 - Out Of Control - 2:54
B7 - Son Of A Copper - 2:40
B8 - I Believe In Anarchy - 2:01

EAC-Log, CUE-Sheed & NFO:

Click to open spoiler
foobar2000 1.2.9 / Dynamic Range Meter 1.1.1
log date: 2014-08-04 15:33:32

——————————————————————————–
Analyzed: Exploited / Punks Not Dead
——————————————————————————–

DR Peak RMS Duration Track
——————————————————————————–
DR12 -3.90 dB -18.90 dB 1:51 ?-A1 Punks Not Dead
DR13 -3.37 dB -18.62 dB 1:42 ?-A2 Mucky Pup
DR13 -4.02 dB -19.52 dB 1:52 ?-A3 Cop Cars
DR13 -3.33 dB -18.34 dB 3:35 ?-A4 Free Flight
DR12 -4.18 dB -18.67 dB 2:36 ?-A5 Army Life (Part 2)
DR13 -5.21 dB -21.97 dB 2:39 ?-A6 Blown To Bits
DR13 -4.15 dB -19.18 dB 5:10 ?-A7 Sex And Violence
DR12 -1.64 dB -17.05 dB 2:08 ?-B1 SPG
DR11 -3.81 dB -16.75 dB 2:07 ?-B2 Royalty
DR13 -1.34 dB -16.21 dB 1:51 ?-B3 Dole Q
DR12 -1.74 dB -15.93 dB 2:28 ?-B4 Exploited Barmy Army
DR12 -2.85 dB -17.05 dB 2:04 ?-B5 Ripper
DR12 -3.38 dB -17.47 dB 2:51 ?-B6 Out Of Control
DR12 -3.22 dB -17.59 dB 2:40 ?-B7 Son Of A Copper
DR12 -2.37 dB -17.34 dB 2:02 ?-B8 I Believe In Anarchy
——————————————————————————–

Number of tracks: 15
Official DR value: DR12

Samplerate: 192000 Hz
Channels: 2
Bits per sample: 24
Bitrate: 5032 kbps
Codec: FLAC
================================================================================

All Rips Using This Setup Punk Rock Palace

Thorens TD 160 (1972-1976,early version) Turntable
Shure V15 Type IV Catridge
JICO SAS Stylus
M-Audio Profire 2626
Sonifex RB-PA2 Phono Dual RIAA Stereo Pre-Amp
Home Designed and built Tube Based Phono Pre-Amp (still being built so am waiting for this)
Merging Technologies Pyramix Software
CEDAR AUDIO Restoration Plugins for Pyramix (when needed and used conservatively)
IzoTope RX 3 Declick (when needed and very lightly)
Home Designed/Built Professional Workstation w/ 5 SSD Drives
Protractor and Tracking Force Gauge Tools used
TT has new White Lithium Grease, New Thorens Offical Belt, and a Kab Speestrobe used.
Stylus using Magic Eraser cleaning trick

ATC-PRO Studio Monitors
Denon Power Amp
Profession Grade Wires
Rackmounted Power Cleaner/Protector on all Audio Gear
APC Smart UPS hooks up all Computer Gear Separate from any Audio Gear and not plugged in to the same Wall Circuit
Professional Grade Patchbay for Routing
Two Channel Custom Built and Designed Tube Based Line Pre-Amp (Not used for most vinyl jobs)

Monitor:
Ext Drive to OPPO BDP-93 to High End Denon Amp thru HDMI for Audio

Leave a Reply

Your email address will not be published. Required fields are marked *

This site uses Akismet to reduce spam. Learn how your comment data is processed.