The Exploited – Let’s Start A War… …Said Maggie One Day (Special Edition)




Artist: The Exploited
Year: 1983/1994
Genre: Punk
Notes: Discogs
Add. Notes: Special Edition
Cover incl.: Yes
Encoder: FLAC
Bitrate: ~900 kBit/s (44.1 kHz/16 Bit/s)
Log & Cue incl.: Yes
Size: 257,73 MB
Password: “slam” (without ” “)


All Downloads/Hosters are compatible

Download 1
Turbobit.net
Rapidgator.net
KatFile.com
UsersDrive.com
CloudShare.to
Download 2
Turbobit.net
Rapidgator.net
KatFile.com
UsersDrive.com
CloudShare.to
Download 3
Turbobit.net
Rapidgator.net
KatFile.com
UsersDrive.com
CloudShare.to

Tracklist:

1 - Let's Start A War (Said Maggie One Day) - 
2 - Insanity - 
3 - Safe Below - 
4 - Eyes Of The Vultures - 
5 - Should We, Can't We - 
6 - Rival Leaders (Remix) - 
7 - God Saved The Queen - 
8 - Psycho - 
9 - Kidology - 
10 - False Hopes - 
11 - Another Day To Go Nowhere - 
12 - Wankers - 
	Bonus Tracks
13 - Army Style - 
14 - Singalongabushel - 
15 - Rival Leaders (EP Version)

EAC-Log, CUE-Sheed & NFO:

Click to open spoiler
Exact Audio Copy V0.99 prebeta 5 from 4. May 2009

Отчёт EAC об извлечении, выполненном 9. сентября 2009, 23:54

The Exploited / Let’s Start A War (Said Maggie One Day)

Дисковод: SONY DVD-ROM DDU1621 Adapter: 1 ID: 1

Режим чтения : Достоверность
Использование точного потока : Да
Отключение кэша аудио : Да
Использование указателей C2 : Нет

Коррекция смещения при чтении : 12
Способность читать области Lead-in и Lead-out : Нет
Заполнение пропущенных сэмплов тишиной : Да
Удаление блоков с тишиной в начале и конце : Нет
При вычислениях CRC использовались нулевые сэмплы : Да
Интерфейс : Установленный внешний ASPI-интерфейс

Выходной формат : Внутренние WAV-операции
Формат сэмплов : 44.100 Гц; 16 бит; стерео

TOC извлечённого CD

Трек | Старт | Длительность | Начальный сектор | Конечный сектор
———————————————————————
1 | 0:00.00 | 3:14.28 | 0 | 14577
2 | 3:14.28 | 4:21.00 | 14578 | 34152
3 | 7:35.28 | 2:18.22 | 34153 | 44524
4 | 9:53.50 | 4:01.73 | 44525 | 62672
5 | 13:55.48 | 1:41.40 | 62673 | 70287
6 | 15:37.13 | 2:44.60 | 70288 | 82647
7 | 18:21.73 | 5:43.65 | 82648 | 108437
8 | 24:05.63 | 2:02.22 | 108438 | 117609
9 | 26:08.10 | 2:08.73 | 117610 | 127282
10 | 28:17.08 | 1:39.30 | 127283 | 134737
11 | 29:56.38 | 2:31.52 | 134738 | 146114
12 | 32:28.15 | 2:39.18 | 146115 | 158057
13 | 35:07.33 | 1:52.30 | 158058 | 166487
14 | 36:59.63 | 2:32.10 | 166488 | 177897
15 | 39:31.73 | 2:10.40 | 177898 | 187687

Характеристики диапазона извлечения и сообщения об ошибках

Выбранный диапазон

Имя файла F:\Загрузки\Exploited\Exploited-Let’s Start A War\The Exploited – Let’s Start A War (Said Maggie One Day).wav

Пиковый уровень 93.3 %
Качество диапазона 100.0 %
CRC теста F04A84FD
CRC копии F04A84FD
Копирование… OK

Ошибок не произошло

AccurateRip: сводка

Трек 1 точное извлечение (доверие 2) [9BA6A6CC]
Трек 2 точное извлечение (доверие 2) [561F3866]
Трек 3 точное извлечение (доверие 2) [D8B5A841]
Трек 4 точное извлечение (доверие 2) [93340D86]
Трек 5 точное извлечение (доверие 2) [9A4684FB]
Трек 6 точное извлечение (доверие 2) [68FD3642]
Трек 7 точное извлечение (доверие 2) [874BC5B8]
Трек 8 точное извлечение (доверие 2) [7EFD60B0]
Трек 9 точное извлечение (доверие 2) [DC0D1645]
Трек 10 точное извлечение (доверие 2) [F8235841]
Трек 11 точное извлечение (доверие 2) [5A326488]
Трек 12 точное извлечение (доверие 2) [29D7C762]
Трек 13 точное извлечение (доверие 2) [F9D07A25]
Трек 14 точное извлечение (доверие 2) [169A4F3E]
Трек 15 точное извлечение (доверие 2) [C5E15872]

Все треки извлечены точно

Конец отчёта

REM GENRE Punk
REM DATE 1983
REM DISCID E109C60F
REM COMMENT “ExactAudioCopy v0.99pb5”
PERFORMER “The Exploited”
TITLE “Let’s Start A War (Said Maggie One Day)”
FILE “The Exploited – Let’s Start A War (Said Maggie One Day).wav” WAVE
TRACK 01 AUDIO
TITLE “Let’s Start A War (Said Maggie One Day)”
PERFORMER “The Exploited”
INDEX 01 00:00:00
TRACK 02 AUDIO
TITLE “Insanity”
PERFORMER “The Exploited”
INDEX 00 03:13:45
INDEX 01 03:14:28
TRACK 03 AUDIO
TITLE “Safe Below”
PERFORMER “The Exploited”
INDEX 00 07:35:08
INDEX 01 07:35:28
TRACK 04 AUDIO
TITLE “Eyes Of The Vulture”
PERFORMER “The Exploited”
INDEX 00 09:53:00
INDEX 01 09:53:50
TRACK 05 AUDIO
TITLE “Should We, Can’t We”
PERFORMER “The Exploited”
INDEX 00 13:54:63
INDEX 01 13:55:48
TRACK 06 AUDIO
TITLE “Rival Leaders (Remix)”
PERFORMER “The Exploited”
INDEX 01 15:37:13
TRACK 07 AUDIO
TITLE “God Saved The Queen”
PERFORMER “The Exploited”
INDEX 00 18:21:38
INDEX 01 18:21:73
TRACK 08 AUDIO
TITLE “Psycho”
PERFORMER “The Exploited”
INDEX 00 24:05:58
INDEX 01 24:05:63
TRACK 09 AUDIO
TITLE “Kidology”
PERFORMER “The Exploited”
INDEX 00 26:07:38
INDEX 01 26:08:10
TRACK 10 AUDIO
TITLE “False Hopes”
PERFORMER “The Exploited”
INDEX 01 28:17:08
TRACK 11 AUDIO
TITLE “Another Day To Go Nowhere”
PERFORMER “The Exploited”
INDEX 00 29:55:63
INDEX 01 29:56:38
TRACK 12 AUDIO
TITLE “Wankers”
PERFORMER “The Exploited”
INDEX 00 32:27:68
INDEX 01 32:28:15
TRACK 13 AUDIO
TITLE “Army Style”
PERFORMER “The Exploited”
INDEX 00 35:06:38
INDEX 01 35:07:33
TRACK 14 AUDIO
TITLE “Singalongabushell”
PERFORMER “The Exploited”
INDEX 00 36:58:48
INDEX 01 36:59:63
TRACK 15 AUDIO
TITLE “Rival Leaders (EP Version)”
PERFORMER “The Exploited”
INDEX 00 39:31:03
INDEX 01 39:31:73

Leave a Reply

Your email address will not be published. Required fields are marked *

This site uses Akismet to reduce spam. Learn how your comment data is processed.