The Exploited – Horror Epics




Artist: The Exploited
Year: 1985/1998
Genre: Hardcore
Notes: Discogs
Add. Notes:
Cover incl.: No
Encoder: FLAC
Bitrate: ~900 kBit/s (44.1 kHz/16 Bit/s)
Log & Cue incl.: Yes
Size: 305,24 MB
Password: “slam” (without ” “)


All Downloads/Hosters are compatible

Download 1
Turbobit.net
Rapidgator.net
UploadEver.com
KatFile.com
UsersDrive.com
Download 2
Turbobit.net
Rapidgator.net
UploadEver.com
KatFile.com
UsersDrive.com
Download 3
Turbobit.net
Rapidgator.net
UploadEver.com
KatFile.com
UsersDrive.com

Tracklist:

1. Horror Epics 
2. Don't Forget The Chaos 
3. Law And Order 
4. I Hate You 
5. No More Idols 
6. Maggie 
7. Dangerous Visions 
8. Down Below 
9. Treat You Like Shit 
10. Forty Odd Years Ago 
11. My Life 
12. Race Against Time 
13. Propaganda

EAC-Log, CUE-Sheed & NFO:

Click to open spoiler
Exact Audio Copy V0.99 prebeta 5 from 4. May 2009

Отчёт EAC об извлечении, выполненном 10. сентября 2009, 0:14

The Exploited / Horror Epics

Дисковод: SONY DVD-ROM DDU1621 Adapter: 1 ID: 1

Режим чтения : Достоверность
Использование точного потока : Да
Отключение кэша аудио : Да
Использование указателей C2 : Нет

Коррекция смещения при чтении : 12
Способность читать области Lead-in и Lead-out : Нет
Заполнение пропущенных сэмплов тишиной : Да
Удаление блоков с тишиной в начале и конце : Нет
При вычислениях CRC использовались нулевые сэмплы : Да
Интерфейс : Установленный внешний ASPI-интерфейс

Выходной формат : Внутренние WAV-операции
Формат сэмплов : 44.100 Гц; 16 бит; стерео

TOC извлечённого CD

Трек | Старт | Длительность | Начальный сектор | Конечный сектор
———————————————————————
1 | 0:00.00 | 5:04.10 | 0 | 22809
2 | 5:04.10 | 3:05.00 | 22810 | 36684
3 | 8:09.10 | 2:52.25 | 36685 | 49609
4 | 11:01.35 | 1:38.20 | 49610 | 56979
5 | 12:39.55 | 4:55.72 | 56980 | 79176
6 | 17:35.52 | 2:35.13 | 79177 | 90814
7 | 20:10.65 | 3:35.55 | 90815 | 106994
8 | 23:46.45 | 4:18.12 | 106995 | 126356
9 | 28:04.57 | 3:38.55 | 126357 | 142761
10 | 31:43.37 | 2:56.50 | 142762 | 156011
11 | 34:40.12 | 5:39.55 | 156012 | 181491
12 | 40:19.67 | 4:21.65 | 181492 | 201131
13 | 44:41.57 | 2:26.08 | 201132 | 212089

Характеристики диапазона извлечения и сообщения об ошибках

Выбранный диапазон

Имя файла F:\Загрузки\Exploited\Exploited-Horror Epics\The Exploited – Horror Epics.wav

Пиковый уровень 98.6 %
Качество диапазона 99.9 %
CRC теста DB88066D
CRC копии DB88066D
Копирование… OK

Ошибок не произошло

AccurateRip: сводка

Трек 1 нет в базе данных
Трек 2 нет в базе данных
Трек 3 нет в базе данных
Трек 4 нет в базе данных
Трек 5 нет в базе данных
Трек 6 нет в базе данных
Трек 7 нет в базе данных
Трек 8 нет в базе данных
Трек 9 нет в базе данных
Трек 10 нет в базе данных
Трек 11 нет в базе данных
Трек 12 нет в базе данных
Трек 13 нет в базе данных

Ни одного трека нет в базе AccurateRip

Конец отчёта

REM GENRE Punk
REM DATE 1985
REM DISCID A40B0B0D
REM COMMENT “ExactAudioCopy v0.99pb5”
PERFORMER “The Exploited”
TITLE “Horror Epics”
FILE “The Exploited – Horror Epics.wav” WAVE
TRACK 01 AUDIO
TITLE “Horror Epics”
PERFORMER “The Exploited”
INDEX 01 00:00:00
TRACK 02 AUDIO
TITLE “Don’t Forget the Chaos”
PERFORMER “The Exploited”
INDEX 00 05:03:45
INDEX 01 05:04:10
TRACK 03 AUDIO
TITLE “Law and Order”
PERFORMER “The Exploited”
INDEX 00 08:08:60
INDEX 01 08:09:10
TRACK 04 AUDIO
TITLE “I Hate You”
PERFORMER “The Exploited”
INDEX 00 11:01:15
INDEX 01 11:01:35
TRACK 05 AUDIO
TITLE “No More Idols”
PERFORMER “The Exploited”
INDEX 00 12:39:15
INDEX 01 12:39:55
TRACK 06 AUDIO
TITLE “Maggie”
PERFORMER “The Exploited”
INDEX 00 17:34:35
INDEX 01 17:35:52
TRACK 07 AUDIO
TITLE “Dangerous Visions”
PERFORMER “The Exploited”
INDEX 00 20:10:20
INDEX 01 20:10:65
TRACK 08 AUDIO
TITLE “Down Below”
PERFORMER “The Exploited”
INDEX 00 23:46:02
INDEX 01 23:46:45
TRACK 09 AUDIO
TITLE “Treat You Like Shit”
PERFORMER “The Exploited”
INDEX 01 28:04:57
TRACK 10 AUDIO
TITLE “Forty Odd Years Ago”
PERFORMER “The Exploited”
INDEX 00 31:43:25
INDEX 01 31:43:37
TRACK 11 AUDIO
TITLE “My Life”
PERFORMER “The Exploited”
INDEX 00 34:39:45
INDEX 01 34:40:12
TRACK 12 AUDIO
TITLE “Race Against Time”
PERFORMER “The Exploited”
INDEX 00 40:19:10
INDEX 01 40:19:67
TRACK 13 AUDIO
TITLE “Propaganda”
PERFORMER “The Exploited”
INDEX 00 44:41:35
INDEX 01 44:41:57


Leave a Reply

Your email address will not be published. Required fields are marked *

This site uses Akismet to reduce spam. Learn how your comment data is processed.