The Exploited – Fuck The System




Artist: The Exploited
Year: 2003
Genre: Punk
Notes: Discogs
Add. Notes:
Cover incl.: Yes
Encoder: FLAC
Bitrate: ~1000 kBit/s (44.1 kHz/16 Bit/s)
Log & Cue incl.: Yes
Size: 253,4 MB
Password: “slam” (without ” “)


All Downloads/Hosters are compatible

Download 1
Turbobit.net
Rapidgator.net
UploadEver.com
KatFile.com
UsersDrive.com
Download 2
Turbobit.net
Rapidgator.net
UploadEver.com
KatFile.com
UsersDrive.com
Download 3
Turbobit.net
Rapidgator.net
UploadEver.com
KatFile.com
UsersDrive.com

Tracklist:

1 - Fuck The System - 4:15
2 - Fucking Liar - 2:34
3 - Holiday In The Sun - 2:24
4 - You're A Fucking Bastard - 2:38
5 - Lie To Me - 2:16
6 - There Is No Point - 2:05
7 - Never Sell Out - 2:35
8 - Noize Annoys - 2:06
9 - I Never Changed - 1:58
10 - Why Are You Doing This To Me - 2:25
11 - Chaos Is My Life - 2:11
12 - Violent Society - 2:14
13 - Was It Me - 4:32

EAC-Log, CUE-Sheed & NFO:

Click to open spoiler
Exact Audio Copy V0.99 prebeta 5 from 4. May 2009

Отчёт EAC об извлечении, выполненном 10. сентября 2009, 15:42

The Exploited / Fuck The System

Дисковод: SONY DVD-ROM DDU1621 Adapter: 1 ID: 1

Режим чтения : Достоверность
Использование точного потока : Да
Отключение кэша аудио : Да
Использование указателей C2 : Нет

Коррекция смещения при чтении : 12
Способность читать области Lead-in и Lead-out : Нет
Заполнение пропущенных сэмплов тишиной : Да
Удаление блоков с тишиной в начале и конце : Нет
При вычислениях CRC использовались нулевые сэмплы : Да
Интерфейс : Установленный внешний ASPI-интерфейс

Выходной формат : Внутренние WAV-операции
Формат сэмплов : 44.100 Гц; 16 бит; стерео

TOC извлечённого CD

Трек | Старт | Длительность | Начальный сектор | Конечный сектор
———————————————————————
1 | 0:00.00 | 4:15.20 | 0 | 19144
2 | 4:15.20 | 2:34.30 | 19145 | 30724
3 | 6:49.50 | 2:24.30 | 30725 | 41554
4 | 9:14.05 | 2:38.20 | 41555 | 53424
5 | 11:52.25 | 2:16.00 | 53425 | 63624
6 | 14:08.25 | 2:05.48 | 63625 | 73047
7 | 16:13.73 | 2:35.05 | 73048 | 84677
8 | 18:49.03 | 2:06.60 | 84678 | 94187
9 | 20:55.63 | 1:58.55 | 94188 | 103092
10 | 22:54.43 | 2:25.00 | 103093 | 113967
11 | 25:19.43 | 2:11.25 | 113968 | 123817
12 | 27:30.68 | 2:14.25 | 123818 | 133892
13 | 29:45.18 | 4:32.15 | 133893 | 154307

Характеристики диапазона извлечения и сообщения об ошибках

Выбранный диапазон

Имя файла F:\Загрузки\Exploited\Exploited-Fuck The System\The Exploited – Fuck The System.wav

Пиковый уровень 98.0 %
Качество диапазона 100.0 %
CRC теста 5D020173
CRC копии 5D020173
Копирование… OK

Ошибок не произошло

AccurateRip: сводка

Трек 1 точное извлечение (доверие 8) [D83D6B6F]
Трек 2 точное извлечение (доверие 8) [F3437CE8]
Трек 3 точное извлечение (доверие 8) [0CAD7E7D]
Трек 4 точное извлечение (доверие 8) [4A5022AC]
Трек 5 точное извлечение (доверие 8) [4600599C]
Трек 6 точное извлечение (доверие 8) [3EF3160B]
Трек 7 точное извлечение (доверие 8) [D64C39CC]
Трек 8 точное извлечение (доверие 7) [B842D24B]
Трек 9 точное извлечение (доверие 8) [C95A7F10]
Трек 10 точное извлечение (доверие 8) [C9B089B3]
Трек 11 точное извлечение (доверие 8) [65479B80]
Трек 12 точное извлечение (доверие 8) [ED7A7E70]
Трек 13 точное извлечение (доверие 8) [B162DB15]

Все треки извлечены точно

Конец отчёта

REM GENRE Punk
REM DATE 2003
REM DISCID A808090D
REM COMMENT “ExactAudioCopy v0.99pb5”
PERFORMER “The Exploited”
TITLE “Fuck The System”
FILE “The Exploited – Fuck The System.wav” WAVE
TRACK 01 AUDIO
TITLE “Fuck The System”
PERFORMER “The Exploited”
INDEX 01 00:00:00
TRACK 02 AUDIO
TITLE “Fucking Liar”
PERFORMER “The Exploited”
INDEX 01 04:15:20
TRACK 03 AUDIO
TITLE “Holiday In The Sun”
PERFORMER “The Exploited”
INDEX 01 06:49:50
TRACK 04 AUDIO
TITLE “You’re A Fucking Bastard”
PERFORMER “The Exploited”
INDEX 01 09:14:05
TRACK 05 AUDIO
TITLE “Lie To Me”
PERFORMER “The Exploited”
INDEX 01 11:52:25
TRACK 06 AUDIO
TITLE “There Is No Point”
PERFORMER “The Exploited”
INDEX 01 14:08:25
TRACK 07 AUDIO
TITLE “Never Sell Out”
PERFORMER “The Exploited”
INDEX 01 16:13:73
TRACK 08 AUDIO
TITLE “Noize Annoys”
PERFORMER “The Exploited”
INDEX 01 18:49:03
TRACK 09 AUDIO
TITLE “I Never Changed”
PERFORMER “The Exploited”
INDEX 01 20:55:63
TRACK 10 AUDIO
TITLE “Why Are You Doing This To Me”
PERFORMER “The Exploited”
INDEX 01 22:54:43
TRACK 11 AUDIO
TITLE “Chaos Is My Life”
PERFORMER “The Exploited”
INDEX 00 25:18:65
INDEX 01 25:19:43
TRACK 12 AUDIO
TITLE “Violent Society”
PERFORMER “The Exploited”
INDEX 01 27:30:68
TRACK 13 AUDIO
TITLE “Was It Me”
PERFORMER “The Exploited”
INDEX 00 29:43:50
INDEX 01 29:45:18

Leave a Reply

Your email address will not be published. Required fields are marked *

This site uses Akismet to reduce spam. Learn how your comment data is processed.