The Exploited – Death Before Dishonour




Artist: The Exploited
Year: 1987/1990
Genre: Punk
Notes: Discogs
Add. Notes:
Cover incl.: Yes
Encoder: FLAC
Bitrate: ~800 kBit/s (44.1 kHz/16 Bit/s)
Log & Cue incl.: Yes
Size: 426,44 MB
Password: “slam” (without ” “)


All Downloads/Hosters are compatible

Download 1
Turbobit.net
Rapidgator.net
KatFile.com
UsersDrive.com
CloudShare.to
Download 2
Turbobit.net
Rapidgator.net
KatFile.com
UsersDrive.com
CloudShare.to
Download 3
Turbobit.net
Rapidgator.net
KatFile.com
UsersDrive.com
CloudShare.to

Tracklist:

1 - Anti-UK - 3:07
2 - Power Struggle - 3:40
3 - Scaling The Derry Wall - 4:08
4 - Barry Prossitt - 3:55
5 - Don't Really Care - 3:21
6 - No Forgiveness - 3:40
7 - Death Before Dishonour - 3:09
8 - Adding To Their Fears - 2:42
9 - Police Informer - 2:44
10 - Drive Me Insane - 3:50
11 - Pulling Us Down - 4:24
12 - Sexual Favours - 3:45
13 - Drug Squad Man - 3:18
14 - Privacy Invasion - 2:30
15 - Jesus Is Dead - 4:16
16 - Politicians - 3:49
17 - War Now - 3:56
18 - United Chaos And Anarchy - 4:14
19 - Sexual Favours (Dub Version) - 3:47

EAC-Log, CUE-Sheed & NFO:

Click to open spoiler
Exact Audio Copy V0.99 prebeta 5 from 4. May 2009

Отчёт EAC об извлечении, выполненном 10. сентября 2009, 8:10

The Exploited / Death Before Dishonour

Дисковод: SONY DVD-ROM DDU1621 Adapter: 1 ID: 1

Режим чтения : Достоверность
Использование точного потока : Да
Отключение кэша аудио : Да
Использование указателей C2 : Нет

Коррекция смещения при чтении : 12
Способность читать области Lead-in и Lead-out : Нет
Заполнение пропущенных сэмплов тишиной : Да
Удаление блоков с тишиной в начале и конце : Нет
При вычислениях CRC использовались нулевые сэмплы : Да
Интерфейс : Установленный внешний ASPI-интерфейс

Выходной формат : Внутренние WAV-операции
Формат сэмплов : 44.100 Гц; 16 бит; стерео

TOC извлечённого CD

Трек | Старт | Длительность | Начальный сектор | Конечный сектор
———————————————————————
1 | 0:00.32 | 3:07.35 | 32 | 14091
2 | 3:07.67 | 3:40.30 | 14092 | 30621
3 | 6:48.22 | 4:08.60 | 30622 | 49281
4 | 10:57.07 | 3:55.08 | 49282 | 66914
5 | 14:52.15 | 3:21.42 | 66915 | 82031
6 | 18:13.57 | 3:40.28 | 82032 | 98559
7 | 21:54.10 | 3:09.45 | 98560 | 112779
8 | 25:03.55 | 2:42.70 | 112780 | 124999
9 | 27:46.50 | 2:44.30 | 125000 | 137329
10 | 30:31.05 | 3:50.42 | 137330 | 154621
11 | 34:21.47 | 4:24.23 | 154622 | 174444
12 | 38:45.70 | 3:45.00 | 174445 | 191319
13 | 42:30.70 | 3:18.27 | 191320 | 206196
14 | 45:49.22 | 2:30.08 | 206197 | 217454
15 | 48:19.30 | 4:16.72 | 217455 | 236726
16 | 52:36.27 | 3:49.18 | 236727 | 253919
17 | 56:25.45 | 3:56.15 | 253920 | 271634
18 | 60:21.60 | 4:14.17 | 271635 | 290701
19 | 64:36.02 | 3:47.20 | 290702 | 307746

Характеристики диапазона извлечения и сообщения об ошибках

Выбранный диапазон

Имя файла F:\Загрузки\Exploited\Exploited-Death Before Dishonour\The Exploited – Death Before Dishonour.wav

Пиковый уровень 100.0 %
Качество диапазона 99.9 %
CRC теста A2672655
CRC копии A2672655
Копирование… OK

Ошибок не произошло

AccurateRip: сводка

Трек 1 нет в базе данных
Трек 2 нет в базе данных
Трек 3 нет в базе данных
Трек 4 нет в базе данных
Трек 5 нет в базе данных
Трек 6 нет в базе данных
Трек 7 нет в базе данных
Трек 8 нет в базе данных
Трек 9 нет в базе данных
Трек 10 нет в базе данных
Трек 11 нет в базе данных
Трек 12 нет в базе данных
Трек 13 нет в базе данных
Трек 14 нет в базе данных
Трек 15 нет в базе данных
Трек 16 нет в базе данных
Трек 17 нет в базе данных
Трек 18 нет в базе данных
Трек 19 точность не определена (достоверность 1) [E68FE875], AccurateRip вернул [0B3E537B]

1 трек(и) не удалось проверить на точность
18 трек(и) не содержатся в базе AccurateRip

Ни один трек не прошёл проверки на точность
В вашей базе может быть иной вариант штамповки диска

Конец отчёта

REM GENRE Punk
REM DATE 1987
REM DISCID 1C100713
REM COMMENT “ExactAudioCopy v0.99pb5”
PERFORMER “The Exploited”
TITLE “Death Before Dishonour”
FILE “The Exploited – Death Before Dishonour.wav” WAVE
TRACK 01 AUDIO
TITLE “Anti-UK”
PERFORMER “The Exploited”
INDEX 00 00:00:00
INDEX 01 00:00:32
TRACK 02 AUDIO
TITLE “Power Struggle”
PERFORMER “The Exploited”
INDEX 00 03:04:37
INDEX 01 03:07:67
TRACK 03 AUDIO
TITLE “Scaling The Derry Wall”
PERFORMER “The Exploited”
INDEX 00 06:45:30
INDEX 01 06:48:22
TRACK 04 AUDIO
TITLE “Barry Prossit”
PERFORMER “The Exploited”
INDEX 00 10:53:22
INDEX 01 10:57:07
TRACK 05 AUDIO
TITLE “Don’t Really Care”
PERFORMER “The Exploited”
INDEX 00 14:48:42
INDEX 01 14:52:15
TRACK 06 AUDIO
TITLE “No Forgiveness”
PERFORMER “The Exploited”
INDEX 00 18:10:05
INDEX 01 18:13:57
TRACK 07 AUDIO
TITLE “Death Before Dishonour”
PERFORMER “The Exploited”
INDEX 00 21:50:65
INDEX 01 21:54:10
TRACK 08 AUDIO
TITLE “Adding To Their Fears”
PERFORMER “The Exploited”
INDEX 00 25:00:47
INDEX 01 25:03:55
TRACK 09 AUDIO
TITLE “Police Informer”
PERFORMER “The Exploited”
INDEX 00 27:44:20
INDEX 01 27:46:50
TRACK 10 AUDIO
TITLE “Drive Me Insane”
PERFORMER “The Exploited”
INDEX 00 30:28:25
INDEX 01 30:31:05
TRACK 11 AUDIO
TITLE “Pulling Us Down”
PERFORMER “The Exploited”
INDEX 00 34:18:32
INDEX 01 34:21:47
TRACK 12 AUDIO
TITLE “Sexual Favours”
PERFORMER “The Exploited”
INDEX 00 38:43:25
INDEX 01 38:45:70
TRACK 13 AUDIO
TITLE “Drug Squad Man”
PERFORMER “The Exploited”
INDEX 00 42:30:40
INDEX 01 42:30:70
TRACK 14 AUDIO
TITLE “Privicy Invasion”
PERFORMER “The Exploited”
INDEX 00 45:49:05
INDEX 01 45:49:22
TRACK 15 AUDIO
TITLE “Jesus Is Dead”
PERFORMER “The Exploited”
INDEX 00 48:19:17
INDEX 01 48:19:30
TRACK 16 AUDIO
TITLE “Politicians”
PERFORMER “The Exploited”
INDEX 00 52:35:22
INDEX 01 52:36:27
TRACK 17 AUDIO
TITLE “War Now”
PERFORMER “The Exploited”
INDEX 00 56:25:20
INDEX 01 56:25:45
TRACK 18 AUDIO
TITLE “United Chaos And Anarchy”
PERFORMER “The Exploited”
INDEX 00 60:20:70
INDEX 01 60:21:60
TRACK 19 AUDIO
TITLE “Sexual Favours (Dub Version)”
PERFORMER “The Exploited”
INDEX 00 64:34:62
INDEX 01 64:36:02

Leave a Reply

Your email address will not be published. Required fields are marked *

Enter the text from the image below
 

This site uses Akismet to reduce spam. Learn how your comment data is processed.