The Exploited – Beat The Bastards




Artist: The Exploited
Year: 1996
Genre: Punk
Notes: Discogs
Add. Notes:
Cover incl.: Yes
Encoder: FLAC
Bitrate: ~1000 kBit/s (44.1 kHz/16 Bit/s)
Log & Cue incl.: Yes
Size: 381,38 MB
Password: “slam” (without ” “)


All Downloads/Hosters are compatible

Download 1
Turbobit.net
Rapidgator.net
UploadEver.com
KatFile.com
UsersDrive.com
Download 2
Turbobit.net
Rapidgator.net
UploadEver.com
KatFile.com
UsersDrive.com
Download 3
Turbobit.net
Rapidgator.net
UploadEver.com
KatFile.com
UsersDrive.com

Tracklist:

1 - Beat The Bastards - 4:21
2 - Affected By Them - 3:04
3 - Don't Blame Me - 5:00
4 - Law For The Rich - 3:20
5 - System Fucked Up - 2:48
6 - They Lie - 2:45
7 - If You're Sad - 5:20
8 - Fightback - 3:25
9 - Massacre Of Innocents - 4:00
10 - Police TV - 3:44
11 - Sea Of Blood - 3:57
12 - 15 Years - 3:05
13 - Serial Killer - 6:45

EAC-Log, CUE-Sheed & NFO:

Click to open spoiler
Exact Audio Copy V0.99 prebeta 5 from 4. May 2009

Отчёт EAC об извлечении, выполненном 10. сентября 2009, 15:15

Exploited / Beat The Bastards

Дисковод: SONY DVD-ROM DDU1621 Adapter: 1 ID: 1

Режим чтения : Достоверность
Использование точного потока : Да
Отключение кэша аудио : Да
Использование указателей C2 : Нет

Коррекция смещения при чтении : 12
Способность читать области Lead-in и Lead-out : Нет
Заполнение пропущенных сэмплов тишиной : Да
Удаление блоков с тишиной в начале и конце : Нет
При вычислениях CRC использовались нулевые сэмплы : Да
Интерфейс : Установленный внешний ASPI-интерфейс

Выходной формат : Внутренние WAV-операции
Формат сэмплов : 44.100 Гц; 16 бит; стерео

TOC извлечённого CD

Трек | Старт | Длительность | Начальный сектор | Конечный сектор
———————————————————————
1 | 0:00.00 | 4:21.05 | 0 | 19579
2 | 4:21.05 | 3:04.50 | 19580 | 33429
3 | 7:25.55 | 5:00.20 | 33430 | 55949
4 | 12:26.00 | 3:20.00 | 55950 | 70949
5 | 15:46.00 | 2:48.00 | 70950 | 83549
6 | 18:34.00 | 2:45.25 | 83550 | 95949
7 | 21:19.25 | 5:20.32 | 95950 | 119981
8 | 26:39.57 | 3:25.00 | 119982 | 135356
9 | 30:04.57 | 4:00.38 | 135357 | 153394
10 | 34:05.20 | 3:44.72 | 153395 | 170266
11 | 37:50.17 | 3:57.30 | 170267 | 188071
12 | 41:47.47 | 3:05.03 | 188072 | 201949
13 | 44:52.50 | 6:45.62 | 201950 | 232386

Характеристики диапазона извлечения и сообщения об ошибках

Выбранный диапазон

Имя файла F:\Загрузки\Exploited\Exploited-Beat The Bastards\Exploited – Beat The Bastards.wav

Пиковый уровень 100.0 %
Качество диапазона 99.9 %
CRC теста FA6ED14D
CRC копии FA6ED14D
Копирование… OK

Ошибок не произошло

AccurateRip: сводка

Трек 1 точное извлечение (доверие 5) [5E948C41]
Трек 2 точное извлечение (доверие 5) [D6DDED68]
Трек 3 точное извлечение (доверие 5) [F5838C0F]
Трек 4 точное извлечение (доверие 5) [232811AB]
Трек 5 точное извлечение (доверие 5) [0CF38393]
Трек 6 точное извлечение (доверие 5) [2657924E]
Трек 7 точное извлечение (доверие 5) [E149A5F0]
Трек 8 точное извлечение (доверие 5) [9BBBFDC9]
Трек 9 точное извлечение (доверие 5) [4D8915E1]
Трек 10 точное извлечение (доверие 5) [979B62AA]
Трек 11 точное извлечение (доверие 5) [0CB3347B]
Трек 12 точное извлечение (доверие 5) [DAE2E8F4]
Трек 13 точное извлечение (доверие 5) [D8232BBF]

Все треки извлечены точно

Конец отчёта

REM GENRE Punk
REM DATE 1996
REM DISCID AF0C1A0D
REM COMMENT “ExactAudioCopy v0.99pb5”
PERFORMER “Exploited”
TITLE “Beat The Bastards”
FILE “Exploited – Beat The Bastards.wav” WAVE
TRACK 01 AUDIO
TITLE “Beat The Bastards”
PERFORMER “Exploited”
INDEX 01 00:00:00
TRACK 02 AUDIO
TITLE “Affected By Them”
PERFORMER “Exploited”
INDEX 01 04:21:05
TRACK 03 AUDIO
TITLE “Don’t Blame Me”
PERFORMER “Exploited”
INDEX 00 07:24:52
INDEX 01 07:25:55
TRACK 04 AUDIO
TITLE “Law For The Rich”
PERFORMER “Exploited”
INDEX 01 12:26:00
TRACK 05 AUDIO
TITLE “System Fucked Up”
PERFORMER “Exploited”
INDEX 01 15:46:00
TRACK 06 AUDIO
TITLE “They Lie”
PERFORMER “Exploited”
INDEX 01 18:34:00
TRACK 07 AUDIO
TITLE “If You’re Sad”
PERFORMER “Exploited”
INDEX 01 21:19:25
TRACK 08 AUDIO
TITLE “Fightback”
PERFORMER “Exploited”
INDEX 01 26:39:57
TRACK 09 AUDIO
TITLE “Massacre Of Innocents”
PERFORMER “Exploited”
INDEX 01 30:04:57
TRACK 10 AUDIO
TITLE “Police TV”
PERFORMER “Exploited”
INDEX 01 34:05:20
TRACK 11 AUDIO
TITLE “Sea Of Blood”
PERFORMER “Exploited”
INDEX 01 37:50:17
TRACK 12 AUDIO
TITLE “15 Years”
PERFORMER “Exploited”
INDEX 01 41:47:47
TRACK 13 AUDIO
TITLE “Serial Killer”
PERFORMER “Exploited”
INDEX 01 44:52:50

Leave a Reply

Your email address will not be published. Required fields are marked *

This site uses Akismet to reduce spam. Learn how your comment data is processed.