The Doors – Waiting For The Sun




Artist: The Doors
Year: 1968/1985
Genre: Rock
Notes: Discogs
Add. Notes:
Cover incl.: Yes
Encoder: FLAC
Bitrate: ~800 kBit/s (44.1 kHz/16 Bit/s)
Log & Cue incl.: Yes
Size: 203,22 MB
Password: “slam” (without ” “)


All Downloads/Hosters are compatible

Download 1
Turbobit.net
Rapidgator.net
UploadEver.com
KatFile.com
UsersDrive.com
Download 2
Turbobit.net
Rapidgator.net
UploadEver.com
KatFile.com
UsersDrive.com
Download 3
Turbobit.net
Rapidgator.net
UploadEver.com
KatFile.com
UsersDrive.com

Tracklist:

1 - Hello, I Love You - 2:16
2 - Love Street - 2:52
3 - Not To Touch The Earth - 3:55
4 - Summer's Almost Gone - 3:22
5 - Wintertime Love - 1:55
6 - The Unknown Soldier - 3:25
7 - Spanish Caravan - 3:00
8 - My Wild Love - 3:01
9 - We Could Be So Good Together - 2:24
10 - Yes, The River Knows - 2:36
11 - Five To One - 4:25

EAC-Log, CUE-Sheed & NFO:

Click to open spoiler
Exact Audio Copy V1.0 beta 2 from 29. April 2011

EAC extraction logfile from 10. July 2011, 0:56

The Doors / Waiting For The Sun (40th Anniversary Mixes)

Used drive : PLEXTOR DVDR PX-L890SA Adapter: 2 ID: 1

Read mode : Secure
Utilize accurate stream : Yes
Defeat audio cache : Yes
Make use of C2 pointers : No

Read offset correction : 6
Overread into Lead-In and Lead-Out : No
Fill up missing offset samples with silence : Yes
Delete leading and trailing silent blocks : No
Null samples used in CRC calculations : Yes
Used interface : Native Win32 interface for Win NT & 2000
Gap handling : Appended to previous track

Used output format : User Defined Encoder
Selected bitrate : 256 kBit/s
Quality : High
Add ID3 tag : No
Command line compressor : C:\Program Files (x86)\Exact Audio Copy\FLAC\FLAC.EXE
Additional command line options : -8 -V -T “ARTIST=%artist%” -T “TITLE=%title%” -T “ALBUM=%albumtitle%” -T “DATE=%year%” -T “TRACKNUMBER=%tracknr%” -T “TOTALTRACKS=%numtracks%” -T “GENRE=%genre%” -T “ALBUMARTIST=%albumartist%” -T “ALBUM ARTIST=%albumartist%

TOC of the extracted CD

Track | Start | Length | Start sector | End sector
———————————————————
1 | 0:00.00 | 2:40.34 | 0 | 12033
2 | 2:40.34 | 2:56.61 | 12034 | 25294
3 | 5:37.20 | 4:00.38 | 25295 | 43332
4 | 9:37.58 | 3:22.72 | 43333 | 58554
5 | 13:00.55 | 1:56.45 | 58555 | 67299
6 | 14:57.25 | 3:26.72 | 67300 | 82821
7 | 18:24.22 | 3:02.36 | 82822 | 96507
8 | 21:26.58 | 3:01.07 | 96508 | 110089
9 | 24:27.65 | 2:23.57 | 110090 | 120871
10 | 26:51.47 | 2:42.32 | 120872 | 133053
11 | 29:34.04 | 4:33.35 | 133054 | 153563

Track 1

Filename F:\Flac Rips\01 – Hello, I Love You.wav

Pre-gap length 0:00:02.00

Peak level 94.9 %
Extraction speed 3.0 X
Track quality 100.0 %
Test CRC 4D2A448F
Copy CRC 4D2A448F
Track not present in AccurateRip database
Copy OK

Track 2

Filename F:\Flac Rips\02 – Love Street.wav

Pre-gap length 0:00:00.01

Peak level 94.6 %
Extraction speed 3.4 X
Track quality 100.0 %
Test CRC 4FFBAF3B
Copy CRC 4FFBAF3B
Track not present in AccurateRip database
Copy OK

Track 3

Filename F:\Flac Rips\03 – Not To Touch The Earth.wav

Pre-gap length 0:00:00.01

Peak level 100.0 %
Extraction speed 3.9 X
Track quality 100.0 %
Test CRC 04DC64EC
Copy CRC 04DC64EC
Track not present in AccurateRip database
Copy OK

Track 4

Filename F:\Flac Rips\04 – Summer’s Almost Gone.wav

Pre-gap length 0:00:00.01

Peak level 95.3 %
Extraction speed 4.1 X
Track quality 100.0 %
Test CRC 94D90ADF
Copy CRC 94D90ADF
Track not present in AccurateRip database
Copy OK

Track 5

Filename F:\Flac Rips\05 – Wintertime Love.wav

Pre-gap length 0:00:00.01

Peak level 94.7 %
Extraction speed 3.9 X
Track quality 100.0 %
Test CRC 646DA295
Copy CRC 646DA295
Track not present in AccurateRip database
Copy OK

Track 6

Filename F:\Flac Rips\06 – The Unknown Soldier.wav

Pre-gap length 0:00:00.01

Peak level 98.5 %
Extraction speed 4.5 X
Track quality 100.0 %
Test CRC 038EA7BE
Copy CRC 038EA7BE
Track not present in AccurateRip database
Copy OK

Track 7

Filename F:\Flac Rips\07 – Spanish Caravan.wav

Pre-gap length 0:00:00.01

Peak level 94.6 %
Extraction speed 4.6 X
Track quality 100.0 %
Test CRC B9BDE152
Copy CRC B9BDE152
Track not present in AccurateRip database
Copy OK

Track 8

Filename F:\Flac Rips\08 – My Wild Love.wav

Pre-gap length 0:00:00.01

Peak level 79.7 %
Extraction speed 4.8 X
Track quality 100.0 %
Test CRC 9383DA46
Copy CRC 9383DA46
Track not present in AccurateRip database
Copy OK

Track 9

Filename F:\Flac Rips\09 – We Could Be So Good Together.wav

Pre-gap length 0:00:00.01

Peak level 95.2 %
Extraction speed 1.7 X
Track quality 99.9 %
Test CRC 18178084
Copy CRC 18178084
Track not present in AccurateRip database
Copy OK

Track 10

Filename F:\Flac Rips\10 – Yes, The River Knows.wav

Pre-gap length 0:00:00.01

Peak level 94.6 %
Extraction speed 5.0 X
Track quality 100.0 %
Test CRC F4D551B4
Copy CRC F4D551B4
Track not present in AccurateRip database
Copy OK

Track 11

Filename F:\Flac Rips\11 – Five To One.wav

Pre-gap length 0:00:00.01

Peak level 95.6 %
Extraction speed 5.6 X
Track quality 100.0 %
Test CRC AD8C4D51
Copy CRC AD8C4D51
Track not present in AccurateRip database
Copy OK

None of the tracks are present in the AccurateRip database

No errors occurred

End of status report

==== Log checksum B1C752E4B95F75E3B5470687C8A3BB5FE8B1707CAAB319CA0900C4582B0B9C86 ====

REM ACCURATERIPID 000dc903-00777073-a907ff0b
REM GENRE “Psychedelic Rock”
REM DATE 1968
REM DISCID A907FF0B
REM COMMENT “ExactAudioCopy v1.0b2”
PERFORMER “The Doors”
TITLE “Waiting For The Sun (40th Anniversary Mixes)”
FILE “Waiting For The Sun.flac” WAVE
TRACK 01 AUDIO
TITLE “Hello, I Love You”
PERFORMER “The Doors”
INDEX 01 00:00:00
TRACK 02 AUDIO
TITLE “Love Street ”
PERFORMER “The Doors”
INDEX 00 02:40:33
INDEX 01 02:40:34
TRACK 03 AUDIO
TITLE “Not To Touch The Earth”
PERFORMER “The Doors”
INDEX 00 05:37:19
INDEX 01 05:37:20
TRACK 04 AUDIO
TITLE “Summer’s Almost Gone”
PERFORMER “The Doors”
INDEX 00 09:37:57
INDEX 01 09:37:58
TRACK 05 AUDIO
TITLE “Wintertime Love”
PERFORMER “The Doors”
INDEX 00 13:00:54
INDEX 01 13:00:55
TRACK 06 AUDIO
TITLE “The Unknown Soldier”
PERFORMER “The Doors”
INDEX 00 14:57:24
INDEX 01 14:57:25
TRACK 07 AUDIO
TITLE “Spanish Caravan”
PERFORMER “The Doors”
INDEX 00 18:24:21
INDEX 01 18:24:22
TRACK 08 AUDIO
TITLE “My Wild Love”
PERFORMER “The Doors”
INDEX 00 21:26:57
INDEX 01 21:26:58
TRACK 09 AUDIO
TITLE “We Could Be So Good Together”
PERFORMER “The Doors”
INDEX 00 24:27:64
INDEX 01 24:27:65
TRACK 10 AUDIO
TITLE “Yes, The River Knows”
PERFORMER “The Doors”
INDEX 00 26:51:46
INDEX 01 26:51:47
TRACK 11 AUDIO
TITLE “Five To One”
PERFORMER “The Doors”
INDEX 00 29:34:03
INDEX 01 29:34:04

Leave a Reply

Your email address will not be published. Required fields are marked *

This site uses Akismet to reduce spam. Learn how your comment data is processed.